找回密码

蓝光电影网

查看: 597|回复: 1

[剧情] 伴我闯天涯 Wild.Style.1983.1080p.AMZN.WEBRip.DDP2.0.x264-ETHiCS 7.18GB

[复制链接]
蓝光币
1022
发表于 2020-1-29 20:28:32 | 显示全部楼层 |阅读模式
伴我闯天涯 Wild.Style.1983.1080p.AMZN.WEBRip.DDP2.0.x264-ETHiCS 7.18GB-1.png

译  名 伴我闯天涯
片  名 Wild Style
年  代 1983
产  地 美国
类  别 剧情 / 记载片 / 音乐
语  言 英语
上映日期 1983-09-16
IMDb评分  7.1/10 from 2108 users
IMDb链接  https://www.imdb.com/title/tt0084904
豆瓣评分 8.5/10 from 214 users
豆瓣链接 https://movie.douban.com/subject/1307765/
片  长 82 分钟
导  演 Charlie Ahearn
编  剧 Charlie Ahearn

标  签 hip-hop | 记载片 | hiphop | 美国 | 音乐 | 黑人电影 | 嘻哈 | OLDSKOOL

简  介  

  The exploits of maverick tagger Zoro (real life graffiti artist Lee Quinones) are followed in WILD STYLE, whose work attracts the attention of an East Village art fancier who commissions him to paint the stage for a giant Rapper's Convention. A document of the earliest days of hip-hop in the boroughs of New York, everything in WILD STYLE is authentic (the story, style, characters and most of the actors), are drawn from the community. It features a pantheon of old-school pioneers, including Grandmaster Flash, Busy Bee, The Cold Crush Brothers and more.
  1. Video
  2. ID                                       : 1
  3. Format                                   : AVC
  4. Format/Info                              : Advanced Video Codec
  5. Format profile                           : [email protected]
  6. Format settings                          : CABAC / 4 Ref Frames
  7. Format settings, CABAC                   : Yes
  8. Format settings, Reference frames        : 4 frames
  9. Codec ID                                 : V_MPEG4/ISO/AVC
  10. Duration                                 : 1 h 21 min
  11. Bit rate                                 : 12.3 Mb/s
  12. Width                                    : 1 440 pixels
  13. Height                                   : 1 080 pixels
  14. Display aspect ratio                     : 4:3
  15. Frame rate mode                          : Constant
  16. Frame rate                               : 23.976 (24000/1001) FPS
  17. Color space                              : YUV
  18. Chroma subsampling                       : 4:2:0
  19. Bit depth                                : 8 bits
  20. Scan type                                : Progressive
  21. Bits/(Pixel*Frame)                       : 0.331
  22. Stream size                              : 7.05 GiB (98%)
  23. Language                                 : English
  24. Default                                  : Yes
  25. Forced                                   : No
  26. Color range                              : Limited
  27. Color primaries                          : BT.709
  28. Transfer characteristics                 : BT.709
  29. Matrix coefficients                      : BT.709

  30. Audio
  31. ID                                       : 2
  32. Format                                   : E-AC-3
  33. Format/Info                              : Enhanced AC-3
  34. Commercial name                          : Dolby Digital Plus
  35. Codec ID                                 : A_EAC3
  36. Duration                                 : 1 h 21 min
  37. Bit rate mode                            : Constant
  38. Bit rate                                 : 224 kb/s
  39. Channel(s)                               : 2 channels
  40. Channel layout                           : L R
  41. Sampling rate                            : 48.0 kHz
  42. Frame rate                               : 31.250 FPS (1536 SPF)
  43. Compression mode                         : Lossy
  44. Stream size                              : 131 MiB (2%)
  45. Language                                 : English
  46. Service kind                             : Complete Main
  47. Default                                  : Yes
  48. Forced                                   : No

  49. Text
  50. ID                                       : 3
  51. Format                                   : UTF-8
  52. Codec ID                                 : S_TEXT/UTF8
  53. Codec ID/Info                            : UTF-8 Plain Text
  54. Duration                                 : 1 h 21 min
  55. Bit rate                                 : 118 b/s
  56. Count of elements                        : 1997
  57. Stream size                              : 70.7 KiB (0%)
  58. Title                                    : SDH
  59. Language                                 : English
  60. Default                                  : No
  61. Forced                                   : No
复制代码

伴我闯天涯 Wild.Style.1983.1080p.AMZN.WEBRip.DDP2.0.x264-ETHiCS 7.18GB-2.png 伴我闯天涯 Wild.Style.1983.1080p.AMZN.WEBRip.DDP2.0.x264-ETHiCS 7.18GB-3.png 伴我闯天涯 Wild.Style.1983.1080p.AMZN.WEBRip.DDP2.0.x264-ETHiCS 7.18GB-4.png






回复

使用道具 举报

蓝光币
0
发表于 2022-1-11 07:13:27 来自手机 | 显示全部楼层
哈哈哈哈哈哈哈
回复 支持 反对

使用道具 举报

懒得打字嘛,点击右侧快捷回复 【右侧内容,后台自定义】
您需要登录后才可以回帖 登录 | 立即加入

本版积分规则

Archiver|小黑屋| 蓝光电影网 |网站地图

Copyright © 2021 Comsenz Inc. Powered by 蓝光电影网

蓝光电影网

本站内容由用户自主分享和转载自互联网,转载目的在于传递更多信息,并不代表本网赞同其观点和对其真实性负责。

如有侵权、违反国家法律政策行为,请联系我们,我们会第一时间及时清除和处理!

举报反馈邮箱:[email protected]

快速回复 返回顶部 返回列表