找回密码

蓝光电影网

查看: 583|回复: 1

[传记] 游戏精神 Spirit.Of.The.Game.2016.1080p.AMZN.WEBRip.DDP5.1.x264-TEPES 6.23GB

[复制链接]
蓝光币
1022
发表于 2020-1-29 20:29:51 | 显示全部楼层 |阅读模式
游戏精神 Spirit.Of.The.Game.2016.1080p.AMZN.WEBRip.DDP5.1.x264-TEPES 6.23GB-1.png

译  名 游戏精神
片  名 The Spirit of the Game
年  代 2016
产  地 澳大利亚
类  别 列传
语  言 英语
上映日期 2016-10-07(美国) / 2016-10-13(澳大利亚)
IMDb评分  5.1/10 from 195 users
IMDb链接  https://www.imdb.com/title/tt4947738
豆瓣评分 0/10 from 0 users
豆瓣链接 https://movie.douban.com/subject/26628448/
导  演 Darran Scott
编  剧 Darran Scott
主  演 凯文·索伯 Kevin Sorbo
       Anna McGahan
       阿隆·贾库本科 Aaron Jakubenko
       韦德·布里格斯 Wade Briggs
       Andrew Hearle


简  介  

  In the lead up to the 1956 Olympic games, a group of missionaries are tasked with helping the fledgling Australian basketball team compete in their first ever Olympics, and in doing so, unite a nation still coming to grips after the war.
  1. Video
  2. ID                                       : 1
  3. Format                                   : AVC
  4. Format/Info                              : Advanced Video Codec
  5. Format profile                           : [email protected]
  6. Format settings                          : CABAC / 4 Ref Frames
  7. Format settings, CABAC                   : Yes
  8. Format settings, Reference frames        : 4 frames
  9. Codec ID                                 : V_MPEG4/ISO/AVC
  10. Duration                                 : 1 h 38 min
  11. Bit rate mode                            : Constant
  12. Bit rate                                 : 8 451 kb/s
  13. Nominal bit rate                         : 10 000 kb/s
  14. Width                                    : 1 920 pixels
  15. Height                                   : 1 080 pixels
  16. Display aspect ratio                     : 16:9
  17. Frame rate mode                          : Constant
  18. Frame rate                               : 24.000 FPS
  19. Color space                              : YUV
  20. Chroma subsampling                       : 4:2:0
  21. Bit depth                                : 8 bits
  22. Scan type                                : Progressive
  23. Bits/(Pixel*Frame)                       : 0.170
  24. Stream size                              : 5.79 GiB (93%)
  25. Default                                  : Yes
  26. Forced                                   : No
  27. Color range                              : Limited
  28. Color primaries                          : BT.709
  29. Transfer characteristics                 : BT.709
  30. Matrix coefficients                      : BT.709

  31. Audio
  32. ID                                       : 2
  33. Format                                   : E-AC-3
  34. Format/Info                              : Enhanced AC-3
  35. Commercial name                          : Dolby Digital Plus
  36. Codec ID                                 : A_EAC3
  37. Duration                                 : 1 h 38 min
  38. Bit rate mode                            : Constant
  39. Bit rate                                 : 640 kb/s
  40. Channel(s)                               : 6 channels
  41. Channel layout                           : L R C LFE Ls Rs
  42. Sampling rate                            : 48.0 kHz
  43. Frame rate                               : 31.250 FPS (1536 SPF)
  44. Compression mode                         : Lossy
  45. Stream size                              : 449 MiB (7%)
  46. Language                                 : English
  47. Service kind                             : Complete Main
  48. Default                                  : Yes
  49. Forced                                   : No

  50. Text
  51. ID                                       : 3
  52. Format                                   : UTF-8
  53. Codec ID                                 : S_TEXT/UTF8
  54. Codec ID/Info                            : UTF-8 Plain Text
  55. Duration                                 : 1 h 31 min
  56. Bit rate                                 : 73 b/s
  57. Count of elements                        : 1410
  58. Stream size                              : 49.0 KiB (0%)
  59. Title                                    : SDH
  60. Language                                 : English
  61. Default                                  : No
  62. Forced                                   : No
复制代码

游戏精神 Spirit.Of.The.Game.2016.1080p.AMZN.WEBRip.DDP5.1.x264-TEPES 6.23GB-2.png 游戏精神 Spirit.Of.The.Game.2016.1080p.AMZN.WEBRip.DDP5.1.x264-TEPES 6.23GB-3.png 游戏精神 Spirit.Of.The.Game.2016.1080p.AMZN.WEBRip.DDP5.1.x264-TEPES 6.23GB-4.png






回复

使用道具 举报

懒得打字嘛,点击右侧快捷回复 【右侧内容,后台自定义】
您需要登录后才可以回帖 登录 | 立即加入

本版积分规则

Archiver|小黑屋| 蓝光电影网 |网站地图

Copyright © 2021 Comsenz Inc. Powered by 蓝光电影网

蓝光电影网

本站内容由用户自主分享和转载自互联网,转载目的在于传递更多信息,并不代表本网赞同其观点和对其真实性负责。

如有侵权、违反国家法律政策行为,请联系我们,我们会第一时间及时清除和处理!

举报反馈邮箱:[email protected]

快速回复 返回顶部 返回列表