找回密码

蓝光电影网

查看: 204|回复: 0

[喜剧] 看谁又在说话/飞越童真 2 Look.Whos.Talking.Too.1990.1080p.AMZN.WEBRip.DDP2.0.x264-ETHiCS 8.16GB

[复制链接]
蓝光币
886
发表于 2020-1-29 20:30:35 | 显示全部楼层 |阅读模式
看谁又在措辞/飞越童真 2 Look.Whos.Talking.Too.1990.1080p.AMZN.WEBRip.DDP2.0.x264-ETHiCS 8.16GB-1.png

译  名 看谁又在措辞 / 飞越童真 2
片  名 Look Who's Talking Too
年  代 1990
产  地 美国
类  别 笑剧 / 恋爱 / 家庭
语  言 英语
上映日期 1990-12-14
IMDb评分  4.7/10 from 42823 users
IMDb链接  https://www.imdb.com/title/tt0100050
豆瓣评分 6.5/10 from 189 users
豆瓣链接 https://movie.douban.com/subject/1293918/
片  长 81 分钟
导  演 艾米·海克林 Amy Heckerling
编  剧 艾米·海克林 Amy Heckerling / 尼尔·伊斯雷尔 Neal Israel
主  演 约翰·特拉沃尔塔 John Travolta
       柯尔斯蒂·艾利 Kirstie Alley
       奥林匹亚·杜卡基斯 Olympia Dukakis
       伊莱亚斯·科泰斯 Elias Koteas
       特温·卡普兰 Twink Caplan
       布鲁斯·威利斯 Bruce Willis
       罗西妮·巴尔 Roseanne Barr
       达蒙·韦恩斯 Damon Wayans
       吉尔伯特·戈特弗雷德 Gilbert Gottfried
       梅尔·布鲁克斯 Mel Brooks
       Lorne Sussman
       Megan Milner
       Georgia Keithley
       Nikki Graham
       Danny Pringle


标  签 美国 | 笑剧 | 家庭 | 儿童 | 1990 | 美国电影 | JohnTravolta | 喜劇

简  介  

  Mollie (Kirstie Alley饰)和James(John Travolta饰)终究走到了一路,他们现在起头配合修建自己的小窝了。此次,他们的大家庭里出了儿子Mickey (Bruce Willis配音)之外,有多了一个女儿,Julie (Roseanne配音)。麻烦事...
  1. Video
  2. ID                                       : 1
  3. Format                                   : AVC
  4. Format/Info                              : Advanced Video Codec
  5. Format profile                           : [email protected]
  6. Format settings                          : CABAC / 4 Ref Frames
  7. Format settings, CABAC                   : Yes
  8. Format settings, Reference frames        : 4 frames
  9. Codec ID                                 : V_MPEG4/ISO/AVC
  10. Duration                                 : 1 h 20 min
  11. Bit rate                                 : 14.3 Mb/s
  12. Width                                    : 1 920 pixels
  13. Height                                   : 1 080 pixels
  14. Display aspect ratio                     : 16:9
  15. Frame rate mode                          : Constant
  16. Frame rate                               : 24.000 FPS
  17. Color space                              : YUV
  18. Chroma subsampling                       : 4:2:0
  19. Bit depth                                : 8 bits
  20. Scan type                                : Progressive
  21. Bits/(Pixel*Frame)                       : 0.287
  22. Stream size                              : 8.04 GiB (98%)
  23. Default                                  : Yes
  24. Forced                                   : No
  25. Color range                              : Limited
  26. Color primaries                          : BT.709
  27. Transfer characteristics                 : BT.709
  28. Matrix coefficients                      : BT.709

  29. Audio
  30. ID                                       : 2
  31. Format                                   : E-AC-3
  32. Format/Info                              : Enhanced AC-3
  33. Commercial name                          : Dolby Digital Plus
  34. Codec ID                                 : A_EAC3
  35. Duration                                 : 1 h 20 min
  36. Bit rate mode                            : Constant
  37. Bit rate                                 : 224 kb/s
  38. Channel(s)                               : 2 channels
  39. Channel layout                           : L R
  40. Sampling rate                            : 48.0 kHz
  41. Frame rate                               : 31.250 FPS (1536 SPF)
  42. Compression mode                         : Lossy
  43. Stream size                              : 129 MiB (2%)
  44. Title                                    : English
  45. Language                                 : English
  46. Service kind                             : Complete Main
  47. Default                                  : Yes
  48. Forced                                   : No

  49. Text
  50. ID                                       : 3
  51. Format                                   : UTF-8
  52. Codec ID                                 : S_TEXT/UTF8
  53. Codec ID/Info                            : UTF-8 Plain Text
  54. Duration                                 : 1 h 20 min
  55. Bit rate                                 : 94 b/s
  56. Count of elements                        : 1234
  57. Stream size                              : 55.7 KiB (0%)
  58. Title                                    : English [SDH]
  59. Language                                 : English
  60. Default                                  : No
  61. Forced                                   : No
复制代码

看谁又在措辞/飞越童真 2 Look.Whos.Talking.Too.1990.1080p.AMZN.WEBRip.DDP2.0.x264-ETHiCS 8.16GB-2.png 看谁又在措辞/飞越童真 2 Look.Whos.Talking.Too.1990.1080p.AMZN.WEBRip.DDP2.0.x264-ETHiCS 8.16GB-1.png 看谁又在措辞/飞越童真 2 Look.Whos.Talking.Too.1990.1080p.AMZN.WEBRip.DDP2.0.x264-ETHiCS 8.16GB-4.png






回复

使用道具 举报

懒得打字嘛,点击右侧快捷回复 【右侧内容,后台自定义】
您需要登录后才可以回帖 登录 | 立即加入

本版积分规则

Archiver|小黑屋| 蓝光电影网 |网站地图

Copyright © 2021 Comsenz Inc. Powered by 蓝光电影网

蓝光电影网

本站内容由用户自主分享和转载自互联网,转载目的在于传递更多信息,并不代表本网赞同其观点和对其真实性负责。

如有侵权、违反国家法律政策行为,请联系我们,我们会第一时间及时清除和处理!

举报反馈邮箱:[email protected]

快速回复 返回顶部 返回列表