找回密码

蓝光电影网

查看: 1402|回复: 6

[8bit.SDR] 第一滴血2 1985.2160p.BluRay.x264.8bit.SDR.DTS-HD.MA.5.1-SWTYBLZ 64GB

[复制链接]
蓝光币
886
发表于 2020-1-29 20:56:51 | 显示全部楼层 |阅读模式
第一滴血2 1985.2160p.BluRay.x264.8bit.SDR.DTS-HD.MA.5.1-SWTYBLZ 64GB-1.jpg

译  名 第一滴血2 / 兰博2

片  名 Rambo: First Blood Part II

年  代 1985

产  地 美国

类  别 行动 / 惊悚 / 冒险

语  言 英语 / 越南语

上映日期 1985-05-22(美国)

IMDb评分 6.4/10 from 133555 users

IMDb链接 http://www.imdb.com/title/tt0089880

豆瓣评分 7.7/10 from 26071 users

豆瓣链接 https://movie.douban.com/subject/1300361/

片  长 96 分钟

导  演 George P. Cosmatos

编  剧 Sylvester Stallone / James Cameron / Kevin Jarre / David Morrell / George Cheung

主  演 Sylvester Stallone

      Richard Crenna

      Steven Berkoff

      Charles Napier

      Julia Nickson-Soul

      Martin Kove













简  介




  神勇的蓝波(西尔维斯特·史泰龙 Sylvester Stallone 饰)又返来了!此次,蓝波受命返回越南观察失落的美军能否已成为战俘。但是,蓝波甫一登陆越南,一切装备和兵器都丧失了!随身剩下的,只要一把军刀和一套军用弓箭。

身处逆境的蓝波,偶然发现了出售他的正是自己的军队!蓝波在九死平生之际,获得了当地一位越南少女的帮助。在少女的帮助下,蓝波凭仗其高明的求生技术和顽强的意志,克服了一切困难,终究逃诞生天。

蓝波决议向出售他的人重拳反击!





  1. Video
  2. ID : 1
  3. Format : AVC
  4. Format/Info : Advanced Video Codec
  5. Format profile : [email protected]
  6. Format settings : CABAC / 5 Ref Frames
  7. Format settings, CABAC : Yes
  8. Format settings, RefFrames : 5 frames
  9. Codec ID : V_MPEG4/ISO/AVC
  10. Duration : 1 h 35 min
  11. Bit rate : 91.3 Mb/s
  12. Width : 3 840 pixels
  13. Height : 1 632 pixels
  14. Display aspect ratio : 2.35:1
  15. Frame rate mode : Constant
  16. Frame rate : 24.000 FPS
  17. Color space : YUV
  18. Chroma subsampling : 4:2:0
  19. Bit depth : 8 bits
  20. Scan type : Progressive
  21. Bits/(Pixel*Frame) : 0.607
  22. Stream size : 61.1 GiB (95%)
  23. Title : Rambo.First.Blood.Part.II.1985.2160p.BluRay.x264.8bit.SDR.DTS-HD.MA.5.1-SWTYBLZ
  24. Writing library : x264 core 157 r2935 545de2f
  25. Encoding settings : cabac=1 / ref=5 / deblock=1:-1:-1 / analyse=0x3:0x113 / me=umh / subme=10 / psy=1 / psy_rd=1.00:0.15 / mixed_ref=1 / me_range=48 / chroma_me=1 / trellis=2 / 8x8dct=1 / cqm=0 / deadzone=21,11 / fast_pskip=1 / chroma_qp_offset=-3 / threads=51 / lookahead_threads=4 / sliced_threads=0 / nr=0 / decimate=0 / interlaced=0 / bluray_compat=0 / constrained_intra=0 / bframes=3 / b_pyramid=2 / b_adapt=2 / b_bias=0 / direct=3 / weightb=1 / open_gop=0 / weightp=2 / keyint=250 / keyint_min=23 / scenecut=40 / intra_refresh=0 / rc_lookahead=50 / rc=crf / mbtree=1 / crf=18.0 / qcomp=0.60 / qpmin=0 / qpmax=69 / qpstep=4 / ip_ratio=1.40 / aq=1:1.00
  26. Default : Yes
  27. Forced : No

  28. Audio #1
  29. ID : 2
  30. Format : DTS XLL
  31. Format/Info : Digital Theater Systems
  32. Commercial name : DTS-HD Master Audio
  33. Codec ID : A_DTS
  34. Duration : 1 h 35 min
  35. Bit rate mode : Variable
  36. Bit rate : 4 174 kb/s
  37. Channel(s) : 6 channels
  38. Channel layout : C L R Ls Rs LFE
  39. Sampling rate : 48.0 kHz
  40. Frame rate : 93.750 FPS (512 SPF)
  41. Bit depth : 24 bits
  42. Compression mode : Lossless
  43. Stream size : 2.79 GiB (4%)
  44. Title : Rambo.First.Blood.Part.II.1985.2160p.BluRay.x264.8bit.SDR.DTS-HD.MA.5.1-SWTYBLZ
  45. Language : English
  46. Default : Yes
  47. Forced : No

  48. Audio #2
  49. ID : 3
  50. Format : AC-3
  51. Format/Info : Audio Coding 3
  52. Commercial name : Dolby Digital
  53. Codec ID : A_AC3
  54. Duration : 1 h 35 min
  55. Bit rate mode : Constant
  56. Bit rate : 640 kb/s
  57. Channel(s) : 6 channels
  58. Channel layout : L R C LFE Ls Rs
  59. Sampling rate : 48.0 kHz
  60. Frame rate : 31.250 FPS (1536 SPF)
  61. Bit depth : 16 bits
  62. Compression mode : Lossy
  63. Stream size : 439 MiB (1%)
  64. Title : Rambo.First.Blood.Part.II.1985.2160p.BluRay.x264.8bit.SDR.DTS-HD.MA.5.1-SWTYBLZ
  65. Language : English
  66. Service kind : Complete Main
  67. Default : No
  68. Forced : No

  69. Text #1
  70. ID : 4
  71. Format : UTF-8
  72. Codec ID : S_TEXT/UTF8
  73. Codec ID/Info : UTF-8 Plain Text
  74. Duration : 1 h 34 min
  75. Bit rate : 20 b/s
  76. Count of elements : 414
  77. Stream size : 14.3 KiB (0%)
  78. Title : English-SRT
  79. Language : English
  80. Default : Yes
  81. Forced : No

  82. Text #2
  83. ID : 5
  84. Format : PGS
  85. Muxing mode : zlib
  86. Codec ID : S_HDMV/PGS
  87. Codec ID/Info : Picture based subtitle format used on BDs/HD-DVDs
  88. Duration : 1 h 34 min
  89. Bit rate : 10.4 kb/s
  90. Count of elements : 882
  91. Stream size : 7.06 MiB (0%)
  92. Title : English-PGS
  93. Language : English
  94. Default : No
  95. Forced : No

  96. Text #3
  97. ID : 6
  98. Format : PGS
  99. Muxing mode : zlib
  100. Codec ID : S_HDMV/PGS
  101. Codec ID/Info : Picture based subtitle format used on BDs/HD-DVDs
  102. Duration : 1 h 31 min
  103. Bit rate : 11.7 kb/s
  104. Count of elements : 842
  105. Stream size : 7.68 MiB (0%)
  106. Title : German-PGS
  107. Language : German
  108. Default : No
  109. Forced : No

  110. Text #4
  111. ID : 7
  112. Format : PGS
  113. Muxing mode : zlib
  114. Codec ID : S_HDMV/PGS
  115. Codec ID/Info : Picture based subtitle format used on BDs/HD-DVDs
  116. Duration : 1 h 31 min
  117. Bit rate : 9 569 b/s
  118. Count of elements : 960
  119. Stream size : 6.26 MiB (0%)
  120. Title : French-PGS
  121. Language : French
  122. Default : No
  123. Forced : No

  124. Menu
  125. 00:00:00.000 : :Chapter 1
  126. 00:09:02.083 : :Chapter 2
  127. 00:17:38.208 : :Chapter 3
  128. 00:26:11.625 : :Chapter 4
  129. 00:35:21.666 : :Chapter 5
  130. 00:45:45.541 : :Chapter 6
  131. 00:55:17.791 : :Chapter 7
  132. 01:06:15.083 : :Chapter 8
  133. 01:15:45.458 : :Chapter 9
  134. 01:26:23.666 : :Chapter 10
复制代码




第一滴血2 1985.2160p.BluRay.x264.8bit.SDR.DTS-HD.MA.5.1-SWTYBLZ 64GB-2.jpg 第一滴血2 1985.2160p.BluRay.x264.8bit.SDR.DTS-HD.MA.5.1-SWTYBLZ 64GB-3.jpg
第一滴血2 1985.2160p.BluRay.x264.8bit.SDR.DTS-HD.MA.5.1-SWTYBLZ 64GB-4.jpg 第一滴血2 1985.2160p.BluRay.x264.8bit.SDR.DTS-HD.MA.5.1-SWTYBLZ 64GB-5.jpg





回复

使用道具 举报

蓝光币
1524
发表于 2020-1-30 12:06:18 | 显示全部楼层

这东西我收了!谢谢楼主!蓝光电影网真好!
回复 支持 反对

使用道具 举报

蓝光币
459
发表于 2020-2-1 18:29:47 | 显示全部楼层

这个帖子不回对不起自己!我想我是一天也不能离开蓝光电影网
回复 支持 反对

使用道具 举报

蓝光币
3430
发表于 2020-2-2 01:04:56 | 显示全部楼层
楼主发贴辛苦了,谢谢楼主分享!我觉得蓝光电影网是注册对了!
回复 支持 反对

使用道具 举报

蓝光币
829
发表于 2020-2-3 09:59:56 | 显示全部楼层
楼主发贴辛苦了,谢谢楼主分享!我觉得蓝光电影网是注册对了!
回复 支持 反对

使用道具 举报

蓝光币
3430
发表于 2020-2-3 12:40:13 | 显示全部楼层

楼主太厉害了!楼主,电影应该很好看我觉得蓝光电影网真是个好地方!
回复 支持 反对

使用道具 举报

蓝光币
80
发表于 2020-2-23 21:15:42 | 显示全部楼层
楼主发贴辛苦了,谢谢楼主分享!我觉得蓝光电影网是注册对了!
回复 支持 反对

使用道具 举报

懒得打字嘛,点击右侧快捷回复 【右侧内容,后台自定义】
您需要登录后才可以回帖 登录 | 立即加入

本版积分规则

Archiver|小黑屋| 蓝光电影网 |网站地图

Copyright © 2021 Comsenz Inc. Powered by 蓝光电影网

蓝光电影网

本站内容由用户自主分享和转载自互联网,转载目的在于传递更多信息,并不代表本网赞同其观点和对其真实性负责。

如有侵权、违反国家法律政策行为,请联系我们,我们会第一时间及时清除和处理!

举报反馈邮箱:[email protected]

快速回复 返回顶部 返回列表