找回密码

蓝光电影网

查看: 2279|回复: 4

[剧情] 灿烂人生 The Best of Youth.2003.1080p.BluRay.x264-HQC [中英字幕/14.1G]

[复制链接]
蓝光币
886
发表于 2020-1-31 18:22:40 | 显示全部楼层 |阅读模式
光辉人生 The Best of Youth.2003.1080p.BluRay.x264-HQC [中英字幕/14.1G]-1.jpg


译  名 光辉人生/光辉时光(台)/最好的青春/少年万岁/灿烂人生

片  名 La meglio gioventù

年  代 2003

国  家 意大利

类  别 剧情/恋爱/家庭

语  言 意大利语

上映日期 2003-06-22

IMDb评分  8.5/10 from 17,217 users

IMDb链接  http://www.imdb.com/title/tt0346336/

豆瓣评分 9.3/10 from 19,812 users

豆瓣链接 https://movie.douban.com/subject/1291831/

片  长 366分钟(共两部分)

导  演 马可·牟利欧·吉欧达纳 Marco Tullio Giordana

主  演 卢伊吉洛·肖卡 Luigi Lo Cascio

      阿莱西奥·博尼 Alessio Boni

      索尼娅·贝加马斯卡 Sonia Bergamasco

      玛雅·珊萨 Maya Sansa

      法布里西奥·纪福尼 Fabrizio Gifuni

      杰丝敏·特丽卡 Jasmine Trinca

      里卡多·斯卡马里奥 Riccardo Scamarcio

      安德烈提多娜 Andrea Tidona

      瓦伦蒂娜·卡妮卢提 Valentina Carnelutti

      卡米拉·菲利皮 Camilla Filippi

      莉迪亚·维塔 Lidia Vitale

      Claudio Gioè

      斯特凡诺·阿伯蒂 Stefano Abbati




简  介




  马里奥(阿莱西奥·博尼 Alessio Boni 饰)和尼古拉(卢伊吉洛·肖卡 Luigi Lo Cascio 饰)是密切无间的两兄弟,可是酷好诗歌的马里奥却在考试中由于与教授定见相左而不及格,相反尼古拉投其所好的表示赢得了医学教授的好评拿到了高分。他们几个朋友相约去毕 业观光,可是马里奥却带来了别的一个不速之客——他从精神医院搭救出来受伤的女孩佐珍(杰丝敏·特丽卡 Jasmine Trinca 饰)。因而,兄弟俩决议陪她寻觅亲人。在一片反动洪流当中,马里奥弃笔从戎,挑选做差人,而尼古拉则漂泊异乡成为了精神科医生。佛罗伦萨的洪流,让兄弟俩重逢,此时尼古拉已经和钢琴师朱莉安成为夫妻。而马里奥则对摄影师米雷拉一见钟情。他们的豪情一样承受着社会动乱的考验……

  本片片长6个小时,经过报告意大利一家人的离合悲欢,反应了意大利从1966年至2000年的社会剧变。




获奖情况




  第56届戛纳电影节  (2003)

  一种关注单元 一种关注大奖 马可·牟利欧·吉欧达纳

  1. General
  2. Complete name                  : F:\Movies\光辉人生(La meglio gioventù)[1080P]\光辉人生(上).mkv

  3. Format                         : Matroska

  4. Format version                 : Version 4 / Version 2

  5. File size                      : 7.12 GiB

  6. Duration                       : 3 h 0 min

  7. Overall bit rate               : 5 657 kb/s

  8. Movie name                     : 光辉人生 La meglio gioventù (2003) Part 1

  9. Encoded date                   : UTC 2017-05-07 12:08:00

  10. Writing application            : mkvmerge v11.0.0 ('Alive') 64bit

  11. Writing library                : libebml v1.3.4 + libmatroska v1.4.5

  12. Attachments                    : simkai.ttf / simsun.ttc




  13. Video

  14. ID                             : 1

  15. Format                         : AVC

  16. Format/Info                    : Advanced Video Codec

  17. Format profile                 : [email protected]

  18. Format settings, CABAC         : Yes

  19. Format settings, ReFrames      : 8 frames

  20. Codec ID                       : V_MPEG4/ISO/AVC

  21. Duration                       : 3 h 0 min

  22. Bit rate                       : 5 000 kb/s

  23. Width                          : 1 920 pixels

  24. Height                         : 1 080 pixels

  25. Display aspect ratio           : 16:9

  26. Frame rate mode                : Constant

  27. Frame rate                     : 25.000 FPS

  28. Color space                    : YUV

  29. Chroma subsampling             : 4:2:0

  30. Bit depth                      : 8 bits

  31. Scan type                      : Progressive

  32. Bits/(Pixel*Frame)             : 0.096

  33. Stream size                    : 6.28 GiB (88%)

  34. Title                          : badboy压制

  35. Writing library                : x264 core 148 r2744 b97ae06

  36. Encoding settings              : cabac=1 / ref=8 / deblock=1:-3:-3 / analyse=0x3:0x113 / me=umh / subme=11 / psy=1 / psy_rd=1.00:0.00 / mixed_ref=1 / me_range=32 / chroma_me=1 / trellis=2 / 8x8dct=1 / cqm=0 / deadzone=21,11 / fast_pskip=1 / chroma_qp_offset=-2 / threads=6 / lookahead_threads=1 / sliced_threads=0 / nr=0 / decimate=1 / interlaced=0 / bluray_compat=0 / constrained_intra=0 / bframes=8 / b_pyramid=2 / b_adapt=1 / b_bias=0 / direct=3 / weightb=1 / open_gop=0 / weightp=2 / keyint=250 / keyint_min=25 / scenecut=50 / intra_refresh=0 / rc_lookahead=250 / rc=2pass / mbtree=0 / bitrate=5000 / ratetol=1.0 / qcomp=0.60 / qpmin=0 / qpmax=69 / qpstep=6 / cplxblur=20.0 / qblur=0.5 / vbv_maxrate=50000 / vbv_bufsize=50000 / nal_hrd=none / filler=0 / ip_ratio=1.40 / pb_ratio=1.30 / aq=1:1.00

  37. Language                       : Italian

  38. Default                        : Yes

  39. Forced                         : No




  40. Audio

  41. ID                             : 2

  42. Format                         : AC-3

  43. Format/Info                    : Audio Coding 3

  44. Format settings, Endianness    : Big

  45. Codec ID                       : A_AC3

  46. Duration                       : 3 h 0 min

  47. Bit rate mode                  : Constant

  48. Bit rate                       : 640 kb/s

  49. Channel(s)                     : 6 channels

  50. Channel positions              : Front: L C R, Side: L R, LFE

  51. Sampling rate                  : 48.0 kHz

  52. Frame rate                     : 31.250 FPS (1536 spf)

  53. Bit depth                      : 16 bits

  54. Compression mode               : Lossy

  55. Stream size                    : 824 MiB (11%)

  56. Title                          : 意大利语

  57. Language                       : Italian

  58. Service kind                   : Complete Main

  59. Default                        : Yes

  60. Forced                         : No




  61. Text #1

  62. ID                             : 3

  63. Format                         : ASS

  64. Codec ID                       : S_TEXT/ASS

  65. Codec ID/Info                  : Advanced Sub Station Alpha

  66. Duration                       : 2 h 54 min

  67. Bit rate                       : 79 b/s

  68. Count of elements              : 1881

  69. Compression mode               : Lossless

  70. Stream size                    : 102 KiB (0%)

  71. Title                          : 简体中文

  72. Language                       : Chinese

  73. Default                        : Yes

  74. Forced                         : No




  75. Text #2

  76. ID                             : 4

  77. Format                         : ASS

  78. Codec ID                       : S_TEXT/ASS

  79. Codec ID/Info                  : Advanced Sub Station Alpha

  80. Duration                       : 2 h 54 min

  81. Bit rate                       : 98 b/s

  82. Count of elements              : 1881

  83. Compression mode               : Lossless

  84. Stream size                    : 126 KiB (0%)

  85. Title                          : 繁体中文

  86. Language                       : Chinese

  87. Default                        : No

  88. Forced                         : No




  89. Text #3

  90. ID                             : 5

  91. Format                         : ASS

  92. Codec ID                       : S_TEXT/ASS

  93. Codec ID/Info                  : Advanced Sub Station Alpha

  94. Duration                       : 2 h 55 min

  95. Bit rate                       : 83 b/s

  96. Count of elements              : 2051

  97. Compression mode               : Lossless

  98. Stream size                    : 107 KiB (0%)

  99. Title                          : 英文

  100. Language                       : English

  101. Default                        : No

  102. Forced                         : No




  103. Text #4

  104. ID                             : 6

  105. Format                         : UTF-8

  106. Codec ID                       : S_TEXT/UTF8

  107. Codec ID/Info                  : UTF-8 Plain Text

  108. Duration                       : 2 h 54 min

  109. Bit rate                       : 51 b/s

  110. Count of elements              : 2310

  111. Stream size                    : 65.3 KiB (0%)

  112. Title                          : 英文

  113. Language                       : English

  114. Default                        : No

  115. Forced                         : No




  116. Menu

  117. 00:00:00.000                   : en:Chapter 01

  118. 00:14:44.600                   : en:Chapter 02

  119. 00:30:21.800                   : en:Chapter 03

  120. 00:45:40.320                   : en:Chapter 04

  121. 01:00:02.720                   : en:Chapter 05

  122. 01:13:28.800                   : en:Chapter 06

  123. 01:29:57.600                   : en:Chapter 07

  124. 01:44:34.480                   : en:Chapter 08

  125. 01:59:58.560                   : en:Chapter 09

  126. 02:15:22.960                   : en:Chapter 10

  127. 02:30:17.600                   : en:Chapter 11

  128. 02:43:50.600                   : en:Chapter 12



复制代码





光辉人生 The Best of Youth.2003.1080p.BluRay.x264-HQC [中英字幕/14.1G]-2.jpg

光辉人生 The Best of Youth.2003.1080p.BluRay.x264-HQC [中英字幕/14.1G]-3.jpg




回复

使用道具 举报

蓝光币
167
发表于 2020-1-31 19:34:03 | 显示全部楼层
thank thank
回复 支持 反对

使用道具 举报

蓝光币
814
发表于 2020-1-31 23:10:45 | 显示全部楼层
谢谢楼主分享
回复 支持 反对

使用道具 举报

蓝光币
32
发表于 2021-12-23 10:35:24 | 显示全部楼层
楼主发贴辛苦了,谢谢楼主分享!我觉得蓝光电影网是注册对了!
回复 支持 反对

使用道具 举报

蓝光币
11
发表于 2022-5-28 20:37:46 | 显示全部楼层
楼主发贴辛苦了,谢谢楼主分享!我觉得蓝光电影网是注册对了!
回复 支持 反对

使用道具 举报

懒得打字嘛,点击右侧快捷回复 【右侧内容,后台自定义】
您需要登录后才可以回帖 登录 | 立即加入

本版积分规则

Archiver|小黑屋| 蓝光电影网 |网站地图

Copyright © 2021 Comsenz Inc. Powered by 蓝光电影网

蓝光电影网

本站内容由用户自主分享和转载自互联网,转载目的在于传递更多信息,并不代表本网赞同其观点和对其真实性负责。

如有侵权、违反国家法律政策行为,请联系我们,我们会第一时间及时清除和处理!

举报反馈邮箱:[email protected]

快速回复 返回顶部 返回列表