找回密码

蓝光电影网

查看: 209|回复: 1

[剧情] 原钻/未切割宝石 Uncut.Gems.2019.1080p.NF.WEBRip.DDP5.1.Atmos.x264-NTG 7.36GB

[复制链接]
蓝光币
886
发表于 2020-1-31 23:56:44 | 显示全部楼层 |阅读模式
原钻/未切割宝石 Uncut.Gems.2019.1080p.NF.WEBRip.DDP5.1.Atmos.x264-NTG 7.36GB-1.png

译  名 原钻 / 未切割宝石 / 未切割的宝石 / 未切割的钻石 / 未琢之石(豆友译名)
片  名 Uncut Gems
年  代 2019
产  地 美国
类  别 剧情 / 笑剧 / 犯罪
语  言 英语
上映日期 2019-08-30(特柳赖德电影节) / 2019-12-25(美国) / 2020-01-31(Netflix)
IMDb评分  8.0/10 from 33040 users
IMDb链接  https://www.imdb.com/title/tt5727208
豆瓣评分 7.2/10 from 6475 users
豆瓣链接 https://movie.douban.com/subject/27045860/
片  长 135分钟
导  演 本·萨弗迪 Ben Safdie / 约书亚·萨弗迪 Joshua Safdie
编  剧 罗纳德·布隆斯坦 Ronald Bronstein / 本·萨弗迪 Ben Safdie / 约书亚·萨弗迪 Joshua Safdie
主  演 亚当·桑德勒 Adam Sandler
       茱莉娅·福克斯 Julia Fox
       凯文·加内特 Kevin Garnett
       威肯 The Weeknd
       伊迪娜·门泽尔 Idina Menzel
       乔纳森·阿兰巴耶夫 Jonathan Aranbayev
       雅各布·伊吉尔斯基 Jacob Igielski
       诺亚·费舍尔 Noa Fisher
       帕洛玛·艾尔瑟瑟 Paloma Elsesser
       勒凯斯·斯坦菲尔德 Lakeith Stanfield
       埃里克·博高森 Eric Bogosian
       基思·威廉姆斯·理查兹 Keith Williams Richards
       汤米·科米尼克 Tommy Kominik
       路易·安东尼·阿里亚斯 Louis Anthony Arias
       肖恩·林金 Sean Ringgold
       贾德·赫希 Judd Hirsch
       约翰·阿莫斯 John Amos
       布莱斯·科里根 Blaise Corrigan
       罗比·德拉费勒 Robbie DeRaffele
       安赫·道格 Anh Duong
       迈克·弗朗西萨 Mike Francesa
       庞·克莱门捷夫 Pom Klementieff
       娜塔莎·雷昂 Natasha Lyonne
       乔恩·内卡杰 Jon Necaj
       尼克·波托兰宁 Nick Poltoranin
       杰克·莱恩 Jake Ryan
       蒂尔达·斯文顿 Tilda Swinton


标  签 美国 | 犯罪 | 2019 | 剧情 | 黑色诙谐 | 悬疑 | 笑剧 | 惊悚

简  介  

  影片报告了一位纽约钻石店老板Howard Ratner(亚当·桑德勒饰),他嗜赌成瘾,婚姻朝不保夕,还有一个对他不虔诚的女友。Howard Ratner欠赌徒(埃里克勃格森饰)钱,而打手们也一向威胁着让他还钱。当他买了一批代价数百万美圆的稀有的未切割埃塞俄比亚卵白石,他感觉自己的霉运会就此终结。这些石头原本是筹算用做拍卖的,可是当波士顿凯尔特人超级球星凯文·加内特走进宝石店,希望租下这些石头,由于它们可以给他在NBA总决赛上带来好运,局势也就越发复杂了起来 。

获奖情况  

  第85届纽约影评人协会奖(2019)
  最好导演 本·萨弗迪 / 约书亚·萨弗迪

  第91届美国国家批评协会奖(2019)
  最好男配角 亚当·桑德勒
  最好原创剧本 约书亚·萨弗迪 / 罗纳德·布隆斯坦 / 本·萨弗迪
  年度佳片

  第25届美国批评家挑选电影奖(2020)
  最好影片(提名)
  最好导演(提名) 约书亚·萨弗迪 / 本·萨弗迪
  最好男配角(提名) 亚当·桑德勒
  最好剪辑(提名)

  第35届美国自力精神奖(2020)
  最好影片(提名)
  最好导演(提名) 本·萨弗迪 / 约书亚·萨弗迪
  最好男配角(提名) 亚当·桑德勒
  最好剧本(提名) 本·萨弗迪 / 罗纳德·布隆斯坦 / 约书亚·萨弗迪
  最好剪辑(提名)

  第29届哥谭自力电影奖(2019)
  最好影片(提名)
  最好男演员(提名) 亚当·桑德勒
  年度冲破演员(提名) 茱莉娅·福克斯

  第24届金卫星奖(2020)
  电影部分 最好笑剧/音乐片(提名)
  电影部分 笑剧/音乐片最好男配角(提名) 亚当·桑德勒

  第54届美国国家影评人协会奖(2020)
  最好男配角(提名) 亚当·桑德勒

  第40届波士顿影评人协会奖(2019)
  最好男配角 亚当·桑德勒
  最好剪辑(提名) 本·萨弗迪 / 罗纳德·布隆斯坦

  第45届洛杉矶影评人协会奖(2019)
  最好剪辑(提名)

  第32届芝加哥影评人协会奖(2019)
  最好男配角(提名) 亚当·桑德勒
  最好剪辑(提名)
  最好原创配乐(提名) 丹尼尔·罗帕汀
  最具潜力演员(提名) 茱莉娅·福克斯

  第4届亚特兰大影评人协会奖(2019)
  十佳影片

  第23届美国在线影评人协会奖(2020)
  最好影片(提名)
  最好男配角(提名) 亚当·桑德勒
  1. Video
  2. ID                                       : 1
  3. Format                                   : AVC
  4. Format/Info                              : Advanced Video Codec
  5. Format profile                           : [email protected]
  6. Format settings                          : CABAC / 4 Ref Frames
  7. Format settings, CABAC                   : Yes
  8. Format settings, Reference frames        : 4 frames
  9. Codec ID                                 : V_MPEG4/ISO/AVC
  10. Duration                                 : 2 h 15 min
  11. Bit rate mode                            : Variable
  12. Bit rate                                 : 6 982 kb/s
  13. Maximum bit rate                         : 20.0 Mb/s
  14. Width                                    : 1 920 pixels
  15. Height                                   : 1 080 pixels
  16. Display aspect ratio                     : 16:9
  17. Frame rate mode                          : Constant
  18. Frame rate                               : 24.000 FPS
  19. Color space                              : YUV
  20. Chroma subsampling                       : 4:2:0
  21. Bit depth                                : 8 bits
  22. Scan type                                : Progressive
  23. Bits/(Pixel*Frame)                       : 0.140
  24. Stream size                              : 6.62 GiB (90%)
  25. Writing library                          : x264 core 148 r2715 7e75228
  26. Encoding settings                        : cabac=1 / ref=4 / deblock=1:0:0 / analyse=0x3:0x111 / me=umh / subme=10 / psy=1 / psy_rd=1.00:0.00 / mixed_ref=1 / me_range=120 / chroma_me=1 / trellis=2 / 8x8dct=1 / cqm=0 / deadzone=21,11 / fast_pskip=1 / chroma_qp_offset=-2 / threads=8 / lookahead_threads=2 / sliced_threads=0 / nr=0 / decimate=1 / interlaced=0 / bluray_compat=0 / stitchable=1 / constrained_intra=0 / bframes=16 / b_pyramid=2 / b_adapt=2 / b_bias=0 / direct=3 / weightb=1 / open_gop=0 / weightp=2 / keyint=240 / keyint_min=121 / scenecut=0 / intra_refresh=0 / rc_lookahead=240 / rc=crf / mbtree=1 / crf=16.0 / qcomp=0.50 / qpmin=6 / qpmax=51 / qpstep=4 / vbv_maxrate=20000 / vbv_bufsize=25000 / crf_max=0.0 / nal_hrd=vbr / filler=0 / ip_ratio=1.40 / aq=1:0.80
  27. Default                                  : Yes
  28. Forced                                   : No

  29. Audio
  30. ID                                       : 2
  31. Format                                   : E-AC-3 JOC
  32. Format/Info                              : Enhanced AC-3 with Joint Object Coding
  33. Commercial name                          : Dolby Digital Plus with Dolby Atmos
  34. Codec ID                                 : A_EAC3
  35. Duration                                 : 2 h 15 min
  36. Bit rate mode                            : Constant
  37. Bit rate                                 : 768 kb/s
  38. Channel(s)                               : 6 channels
  39. Channel layout                           : L R C LFE Ls Rs
  40. Sampling rate                            : 48.0 kHz
  41. Frame rate                               : 31.250 FPS (1536 SPF)
  42. Compression mode                         : Lossy
  43. Stream size                              : 746 MiB (10%)
  44. Title                                    : English
  45. Language                                 : English
  46. Service kind                             : Complete Main
  47. Default                                  : Yes
  48. Forced                                   : No
  49. Complexity index                         : 16
  50. Number of dynamic objects                : 15
  51. Bed channel count                        : 1 channel
  52. Bed channel configuration                : LFE

  53. Text #1
  54. ID                                       : 3
  55. Format                                   : UTF-8
  56. Codec ID                                 : S_TEXT/UTF8
  57. Codec ID/Info                            : UTF-8 Plain Text
  58. Duration                                 : 2 h 9 min
  59. Bit rate                                 : 107 b/s
  60. Count of elements                        : 2584
  61. Stream size                              : 102 KiB (0%)
  62. Language                                 : English
  63. Default                                  : No
  64. Forced                                   : No

  65. Text #2
  66. ID                                       : 4
  67. Format                                   : UTF-8
  68. Codec ID                                 : S_TEXT/UTF8
  69. Codec ID/Info                            : UTF-8 Plain Text
  70. Duration                                 : 2 h 13 min
  71. Bit rate                                 : 114 b/s
  72. Count of elements                        : 2730
  73. Stream size                              : 112 KiB (0%)
  74. Title                                    : SDH
  75. Language                                 : English
  76. Default                                  : No
  77. Forced                                   : No

  78. Text #3
  79. ID                                       : 5
  80. Format                                   : UTF-8
  81. Codec ID                                 : S_TEXT/UTF8
  82. Codec ID/Info                            : UTF-8 Plain Text
  83. Duration                                 : 2 h 14 min
  84. Bit rate                                 : 143 b/s
  85. Count of elements                        : 2553
  86. Stream size                              : 141 KiB (0%)
  87. Language                                 : Arabic
  88. Default                                  : No
  89. Forced                                   : No

  90. Text #4
  91. ID                                       : 6
  92. Format                                   : UTF-8
  93. Codec ID                                 : S_TEXT/UTF8
  94. Codec ID/Info                            : UTF-8 Plain Text
  95. Duration                                 : 2 h 14 min
  96. Bit rate                                 : 81 b/s
  97. Count of elements                        : 2512
  98. Stream size                              : 79.7 KiB (0%)
  99. Language                                 : Czech
  100. Default                                  : No
  101. Forced                                   : No

  102. Text #5
  103. ID                                       : 7
  104. Format                                   : UTF-8
  105. Codec ID                                 : S_TEXT/UTF8
  106. Codec ID/Info                            : UTF-8 Plain Text
  107. Duration                                 : 2 h 14 min
  108. Bit rate                                 : 77 b/s
  109. Count of elements                        : 2183
  110. Stream size                              : 76.4 KiB (0%)
  111. Language                                 : Danish
  112. Default                                  : No
  113. Forced                                   : No

  114. Text #6
  115. ID                                       : 8
  116. Format                                   : UTF-8
  117. Codec ID                                 : S_TEXT/UTF8
  118. Codec ID/Info                            : UTF-8 Plain Text
  119. Duration                                 : 2 h 14 min
  120. Bit rate                                 : 81 b/s
  121. Count of elements                        : 2377
  122. Stream size                              : 80.0 KiB (0%)
  123. Language                                 : German
  124. Default                                  : No
  125. Forced                                   : No

  126. Text #7
  127. ID                                       : 9
  128. Format                                   : UTF-8
  129. Codec ID                                 : S_TEXT/UTF8
  130. Codec ID/Info                            : UTF-8 Plain Text
  131. Duration                                 : 2 h 14 min
  132. Bit rate                                 : 134 b/s
  133. Count of elements                        : 2474
  134. Stream size                              : 132 KiB (0%)
  135. Language                                 : Greek
  136. Default                                  : No
  137. Forced                                   : No

  138. Text #8
  139. ID                                       : 10
  140. Format                                   : UTF-8
  141. Codec ID                                 : S_TEXT/UTF8
  142. Codec ID/Info                            : UTF-8 Plain Text
  143. Duration                                 : 2 h 14 min
  144. Bit rate                                 : 77 b/s
  145. Count of elements                        : 2514
  146. Stream size                              : 76.4 KiB (0%)
  147. Language                                 : Spanish
  148. Default                                  : No
  149. Forced                                   : No

  150. Text #9
  151. ID                                       : 11
  152. Format                                   : UTF-8
  153. Codec ID                                 : S_TEXT/UTF8
  154. Codec ID/Info                            : UTF-8 Plain Text
  155. Duration                                 : 2 h 14 min
  156. Bit rate                                 : 73 b/s
  157. Count of elements                        : 2556
  158. Stream size                              : 72.1 KiB (0%)
  159. Title                                    : European
  160. Language                                 : Spanish
  161. Default                                  : No
  162. Forced                                   : No

  163. Text #10
  164. ID                                       : 12
  165. Format                                   : UTF-8
  166. Codec ID                                 : S_TEXT/UTF8
  167. Codec ID/Info                            : UTF-8 Plain Text
  168. Duration                                 : 2 h 14 min
  169. Bit rate                                 : 80 b/s
  170. Count of elements                        : 2337
  171. Stream size                              : 79.1 KiB (0%)
  172. Language                                 : Finnish
  173. Default                                  : No
  174. Forced                                   : No

  175. Text #11
  176. ID                                       : 13
  177. Format                                   : UTF-8
  178. Codec ID                                 : S_TEXT/UTF8
  179. Codec ID/Info                            : UTF-8 Plain Text
  180. Duration                                 : 2 h 14 min
  181. Bit rate                                 : 74 b/s
  182. Count of elements                        : 2424
  183. Stream size                              : 73.5 KiB (0%)
  184. Language                                 : French
  185. Default                                  : No
  186. Forced                                   : No

  187. Text #12
  188. ID                                       : 14
  189. Format                                   : UTF-8
  190. Codec ID                                 : S_TEXT/UTF8
  191. Codec ID/Info                            : UTF-8 Plain Text
  192. Duration                                 : 2 h 14 min
  193. Bit rate                                 : 141 b/s
  194. Count of elements                        : 2314
  195. Stream size                              : 138 KiB (0%)
  196. Language                                 : Hebrew
  197. Default                                  : No
  198. Forced                                   : No

  199. Text #13
  200. ID                                       : 15
  201. Format                                   : UTF-8
  202. Codec ID                                 : S_TEXT/UTF8
  203. Codec ID/Info                            : UTF-8 Plain Text
  204. Duration                                 : 2 h 14 min
  205. Bit rate                                 : 240 b/s
  206. Count of elements                        : 2555
  207. Stream size                              : 236 KiB (0%)
  208. Language                                 : Hindi
  209. Default                                  : No
  210. Forced                                   : No

  211. Text #14
  212. ID                                       : 16
  213. Format                                   : UTF-8
  214. Codec ID                                 : S_TEXT/UTF8
  215. Codec ID/Info                            : UTF-8 Plain Text
  216. Duration                                 : 2 h 14 min
  217. Bit rate                                 : 81 b/s
  218. Count of elements                        : 2326
  219. Stream size                              : 79.8 KiB (0%)
  220. Language                                 : Hungarian
  221. Default                                  : No
  222. Forced                                   : No

  223. Text #15
  224. ID                                       : 17
  225. Format                                   : UTF-8
  226. Codec ID                                 : S_TEXT/UTF8
  227. Codec ID/Info                            : UTF-8 Plain Text
  228. Duration                                 : 2 h 14 min
  229. Bit rate                                 : 70 b/s
  230. Count of elements                        : 2522
  231. Stream size                              : 69.4 KiB (0%)
  232. Language                                 : Indonesian
  233. Default                                  : No
  234. Forced                                   : No

  235. Text #16
  236. ID                                       : 18
  237. Format                                   : UTF-8
  238. Codec ID                                 : S_TEXT/UTF8
  239. Codec ID/Info                            : UTF-8 Plain Text
  240. Duration                                 : 2 h 14 min
  241. Bit rate                                 : 83 b/s
  242. Count of elements                        : 2549
  243. Stream size                              : 82.1 KiB (0%)
  244. Language                                 : Italian
  245. Default                                  : No
  246. Forced                                   : No

  247. Text #17
  248. ID                                       : 19
  249. Format                                   : UTF-8
  250. Codec ID                                 : S_TEXT/UTF8
  251. Codec ID/Info                            : UTF-8 Plain Text
  252. Duration                                 : 2 h 14 min
  253. Bit rate                                 : 68 b/s
  254. Count of elements                        : 2654
  255. Stream size                              : 66.9 KiB (0%)
  256. Language                                 : Japanese
  257. Default                                  : No
  258. Forced                                   : No

  259. Text #18
  260. ID                                       : 20
  261. Format                                   : UTF-8
  262. Codec ID                                 : S_TEXT/UTF8
  263. Codec ID/Info                            : UTF-8 Plain Text
  264. Duration                                 : 2 h 14 min
  265. Bit rate                                 : 104 b/s
  266. Count of elements                        : 2565
  267. Stream size                              : 103 KiB (0%)
  268. Language                                 : Korean
  269. Default                                  : No
  270. Forced                                   : No

  271. Text #19
  272. ID                                       : 21
  273. Format                                   : UTF-8
  274. Codec ID                                 : S_TEXT/UTF8
  275. Codec ID/Info                            : UTF-8 Plain Text
  276. Duration                                 : 2 h 14 min
  277. Bit rate                                 : 75 b/s
  278. Count of elements                        : 1928
  279. Stream size                              : 74.4 KiB (0%)
  280. Language                                 : Norwegian Bokmal
  281. Default                                  : No
  282. Forced                                   : No

  283. Text #20
  284. ID                                       : 22
  285. Format                                   : UTF-8
  286. Codec ID                                 : S_TEXT/UTF8
  287. Codec ID/Info                            : UTF-8 Plain Text
  288. Duration                                 : 2 h 14 min
  289. Bit rate                                 : 77 b/s
  290. Count of elements                        : 2235
  291. Stream size                              : 76.2 KiB (0%)
  292. Language                                 : Dutch
  293. Default                                  : No
  294. Forced                                   : No

  295. Text #21
  296. ID                                       : 23
  297. Format                                   : UTF-8
  298. Codec ID                                 : S_TEXT/UTF8
  299. Codec ID/Info                            : UTF-8 Plain Text
  300. Duration                                 : 2 h 14 min
  301. Bit rate                                 : 72 b/s
  302. Count of elements                        : 2538
  303. Stream size                              : 71.1 KiB (0%)
  304. Language                                 : Polish
  305. Default                                  : No
  306. Forced                                   : No

  307. Text #22
  308. ID                                       : 24
  309. Format                                   : UTF-8
  310. Codec ID                                 : S_TEXT/UTF8
  311. Codec ID/Info                            : UTF-8 Plain Text
  312. Duration                                 : 2 h 14 min
  313. Bit rate                                 : 83 b/s
  314. Count of elements                        : 2528
  315. Stream size                              : 82.4 KiB (0%)
  316. Language                                 : Portuguese
  317. Default                                  : No
  318. Forced                                   : No

  319. Text #23
  320. ID                                       : 25
  321. Format                                   : UTF-8
  322. Codec ID                                 : S_TEXT/UTF8
  323. Codec ID/Info                            : UTF-8 Plain Text
  324. Duration                                 : 2 h 14 min
  325. Bit rate                                 : 82 b/s
  326. Count of elements                        : 2645
  327. Stream size                              : 81.5 KiB (0%)
  328. Title                                    : Brazilian
  329. Language                                 : Portuguese
  330. Default                                  : No
  331. Forced                                   : No

  332. Text #24
  333. ID                                       : 26
  334. Format                                   : UTF-8
  335. Codec ID                                 : S_TEXT/UTF8
  336. Codec ID/Info                            : UTF-8 Plain Text
  337. Duration                                 : 2 h 14 min
  338. Bit rate                                 : 83 b/s
  339. Count of elements                        : 2520
  340. Stream size                              : 82.2 KiB (0%)
  341. Language                                 : Romanian
  342. Default                                  : No
  343. Forced                                   : No

  344. Text #25
  345. ID                                       : 27
  346. Format                                   : UTF-8
  347. Codec ID                                 : S_TEXT/UTF8
  348. Codec ID/Info                            : UTF-8 Plain Text
  349. Duration                                 : 2 h 14 min
  350. Bit rate                                 : 133 b/s
  351. Count of elements                        : 2519
  352. Stream size                              : 131 KiB (0%)
  353. Language                                 : Russian
  354. Default                                  : No
  355. Forced                                   : No

  356. Text #26
  357. ID                                       : 28
  358. Format                                   : UTF-8
  359. Codec ID                                 : S_TEXT/UTF8
  360. Codec ID/Info                            : UTF-8 Plain Text
  361. Duration                                 : 2 h 14 min
  362. Bit rate                                 : 74 b/s
  363. Count of elements                        : 2181
  364. Stream size                              : 72.8 KiB (0%)
  365. Language                                 : Swedish
  366. Default                                  : No
  367. Forced                                   : No

  368. Text #27
  369. ID                                       : 29
  370. Format                                   : UTF-8
  371. Codec ID                                 : S_TEXT/UTF8
  372. Codec ID/Info                            : UTF-8 Plain Text
  373. Duration                                 : 2 h 14 min
  374. Bit rate                                 : 257 b/s
  375. Count of elements                        : 2545
  376. Stream size                              : 253 KiB (0%)
  377. Language                                 : Thai
  378. Default                                  : No
  379. Forced                                   : No

  380. Text #28
  381. ID                                       : 30
  382. Format                                   : UTF-8
  383. Codec ID                                 : S_TEXT/UTF8
  384. Codec ID/Info                            : UTF-8 Plain Text
  385. Duration                                 : 2 h 14 min
  386. Bit rate                                 : 84 b/s
  387. Count of elements                        : 2415
  388. Stream size                              : 82.6 KiB (0%)
  389. Language                                 : Turkish
  390. Default                                  : No
  391. Forced                                   : No

  392. Text #29
  393. ID                                       : 31
  394. Format                                   : UTF-8
  395. Codec ID                                 : S_TEXT/UTF8
  396. Codec ID/Info                            : UTF-8 Plain Text
  397. Duration                                 : 2 h 8 min
  398. Bit rate                                 : 118 b/s
  399. Count of elements                        : 2388
  400. Stream size                              : 112 KiB (0%)
  401. Language                                 : Vietnamese
  402. Default                                  : No
  403. Forced                                   : No

  404. Text #30
  405. ID                                       : 32
  406. Format                                   : UTF-8
  407. Codec ID                                 : S_TEXT/UTF8
  408. Codec ID/Info                            : UTF-8 Plain Text
  409. Duration                                 : 2 h 14 min
  410. Bit rate                                 : 95 b/s
  411. Count of elements                        : 2554
  412. Stream size                              : 93.9 KiB (0%)
  413. Title                                    : Simplified
  414. Language                                 : Chinese
  415. Default                                  : No
  416. Forced                                   : No

  417. Text #31
  418. ID                                       : 33
  419. Format                                   : UTF-8
  420. Codec ID                                 : S_TEXT/UTF8
  421. Codec ID/Info                            : UTF-8 Plain Text
  422. Duration                                 : 2 h 14 min
  423. Bit rate                                 : 89 b/s
  424. Count of elements                        : 2560
  425. Stream size                              : 88.1 KiB (0%)
  426. Title                                    : Traditional
  427. Language                                 : Chinese
  428. Default                                  : No
  429. Forced                                   : No
复制代码

原钻/未切割宝石 Uncut.Gems.2019.1080p.NF.WEBRip.DDP5.1.Atmos.x264-NTG 7.36GB-2.png 原钻/未切割宝石 Uncut.Gems.2019.1080p.NF.WEBRip.DDP5.1.Atmos.x264-NTG 7.36GB-3.png 原钻/未切割宝石 Uncut.Gems.2019.1080p.NF.WEBRip.DDP5.1.Atmos.x264-NTG 7.36GB-1.png






回复

使用道具 举报

蓝光币
760
发表于 2020-2-1 13:29:19 | 显示全部楼层
今年奥斯卡的遗珠佳作,感谢分享
回复 支持 反对

使用道具 举报

懒得打字嘛,点击右侧快捷回复 【右侧内容,后台自定义】
您需要登录后才可以回帖 登录 | 立即加入

本版积分规则

Archiver|小黑屋| 蓝光电影网 |网站地图

Copyright © 2021 Comsenz Inc. Powered by 蓝光电影网

蓝光电影网

本站内容由用户自主分享和转载自互联网,转载目的在于传递更多信息,并不代表本网赞同其观点和对其真实性负责。

如有侵权、违反国家法律政策行为,请联系我们,我们会第一时间及时清除和处理!

举报反馈邮箱:[email protected]

快速回复 返回顶部 返回列表