找回密码

蓝光电影网

查看: 377|回复: 2

[剧情] 谍魂/谍魄 Topaz.1969.INTERNAL.1080p.BluRay.x264-CLASSiC 11.03GB

[复制链接]
蓝光币
1020
发表于 2020-2-1 00:18:07 | 显示全部楼层 |阅读模式
谍魂/谍魄 Topaz.1969.INTERNAL.1080p.BluRay.x264-CLASSiC 11.03GB-1.png

译  名 谍魂 / 谍魄 / 黄宝石
片  名 Topaz
年  代 1969
产  地 美国
类  别 惊悚 / 犯罪
语  言 英语
上映日期 1969-12-19
IMDb评分  6.3/10 from 15642 users
IMDb链接  https://www.imdb.com/title/tt0065112
豆瓣评分 6.5/10 from 774 users
豆瓣链接 https://movie.douban.com/subject/1301235/
片  长 143 分钟
导  演 Alfred Hitchcock
编  剧 Samuel A. Taylor / Leon Uris
主  演 Frederick Stafford
       Dany Robin
       Karin Dor
       John Vernon
       Michel Piccoli
       克劳迪·贾德 Claude Jade


标  签 希区柯克 | 美国 | 悬疑 | AlfredHitchcock | 1969 | 阿尔弗雷德·希区柯克 | Alfred_Hitchcock | 美国电影

简  介  

  故事描写一位高阶的苏联军官投诚美国后,流暴露一个惊人的消息:一位代号“黄宝石”的法国特务,不竭的将北大西洋公约构造的奥秘流露给卡斯楚与苏联政府。因而,法国奥秘特务安德鲁受命前往当地观察,在美国中情局官员的帮助下,他们鲜明发现这名顶尖的法国官员,居然是苏联特务!他们两人能否能揭穿特务“黄宝石”的真脸孔呢?
  1. Video
  2. ID                                       : 1
  3. Format                                   : AVC
  4. Format/Info                              : Advanced Video Codec
  5. Format profile                           : [email protected]
  6. Format settings                          : CABAC / 4 Ref Frames
  7. Format settings, CABAC                   : Yes
  8. Format settings, Reference frames        : 4 frames
  9. Codec ID                                 : V_MPEG4/ISO/AVC
  10. Duration                                 : 2 h 5 min
  11. Bit rate                                 : 10.6 Mb/s
  12. Width                                    : 1 920 pixels
  13. Height                                   : 1 040 pixels
  14. Display aspect ratio                     : 1.85:1
  15. Frame rate mode                          : Constant
  16. Frame rate                               : 23.976 (24000/1001) FPS
  17. Color space                              : YUV
  18. Chroma subsampling                       : 4:2:0
  19. Bit depth                                : 8 bits
  20. Scan type                                : Progressive
  21. Bits/(Pixel*Frame)                       : 0.221
  22. Stream size                              : 9.29 GiB (85%)
  23. Writing library                          : x264 core 159 r2991 1771b55
  24. Encoding settings                        : cabac=1 / ref=4 / deblock=1:0:0 / analyse=0x3:0x133 / me=tesa / subme=10 / psy=1 / psy_rd=1.00:0.00 / mixed_ref=1 / me_range=24 / chroma_me=1 / trellis=2 / 8x8dct=1 / cqm=0 / deadzone=21,11 / fast_pskip=0 / chroma_qp_offset=-2 / threads=24 / lookahead_threads=4 / sliced_threads=0 / nr=0 / decimate=1 / interlaced=0 / bluray_compat=0 / constrained_intra=0 / bframes=8 / b_pyramid=0 / b_adapt=2 / b_bias=0 / direct=3 / weightb=1 / open_gop=0 / weightp=2 / keyint=240 / keyint_min=24 / scenecut=40 / intra_refresh=0 / rc_lookahead=60 / rc=2pass / mbtree=1 / bitrate=10594 / ratetol=1.0 / qcomp=0.60 / qpmin=0 / qpmax=69 / qpstep=4 / cplxblur=20.0 / qblur=0.5 / vbv_maxrate=78125 / vbv_bufsize=62500 / nal_hrd=none / filler=0 / ip_ratio=1.40 / aq=1:1.00
  25. Default                                  : Yes
  26. Forced                                   : No
  27. Color range                              : Limited
  28. Color primaries                          : BT.709
  29. Transfer characteristics                 : BT.709
  30. Matrix coefficients                      : BT.709

  31. Audio
  32. ID                                       : 2
  33. Format                                   : DTS XLL
  34. Format/Info                              : Digital Theater Systems
  35. Commercial name                          : DTS-HD Master Audio
  36. Codec ID                                 : A_DTS
  37. Duration                                 : 2 h 5 min
  38. Bit rate mode                            : Variable
  39. Bit rate                                 : 1 849 kb/s
  40. Channel(s)                               : 2 channels
  41. Channel layout                           : L R
  42. Sampling rate                            : 48.0 kHz
  43. Frame rate                               : 93.750 FPS (512 SPF)
  44. Bit depth                                : 24 bits
  45. Compression mode                         : Lossless
  46. Stream size                              : 1.62 GiB (15%)
  47. Language                                 : English
  48. Default                                  : Yes
  49. Forced                                   : No

  50. Menu
  51. 00:00:00.000                             : en:Chapter 01
  52. 00:02:09.087                             : en:Chapter 02
  53. 00:15:42.191                             : en:Chapter 03
  54. 00:20:18.926                             : en:Chapter 04
  55. 00:24:57.955                             : en:Chapter 05
  56. 00:27:55.173                             : en:Chapter 06
  57. 00:32:58.351                             : en:Chapter 07
  58. 00:53:40.926                             : en:Chapter 08
  59. 01:02:56.731                             : en:Chapter 09
  60. 01:21:57.913                             : en:Chapter 10
  61. 01:32:48.688                             : en:Chapter 11
  62. 01:36:19.273                             : en:Chapter 12
  63. 01:40:52.964                             : en:Chapter 13
  64. 01:46:44.148                             : en:Chapter 14
  65. 01:55:17.160                             : en:Chapter 15
  66. 01:56:52.923                             : en:Chapter 16
  67. 02:01:26.237                             : en:Chapter 17
  68. 02:04:57.782                             : en:Chapter 18
复制代码

谍魂/谍魄 Topaz.1969.INTERNAL.1080p.BluRay.x264-CLASSiC 11.03GB-2.png






回复

使用道具 举报

蓝光币
70
发表于 2020-2-4 19:32:55 | 显示全部楼层

楼主太厉害了!楼主,电影应该很好看我觉得蓝光电影网真是个好地方!
回复 支持 反对

使用道具 举报

懒得打字嘛,点击右侧快捷回复 【右侧内容,后台自定义】
您需要登录后才可以回帖 登录 | 立即加入

本版积分规则

Archiver|小黑屋| 蓝光电影网 |网站地图

Copyright © 2021 Comsenz Inc. Powered by 蓝光电影网

蓝光电影网

本站内容由用户自主分享和转载自互联网,转载目的在于传递更多信息,并不代表本网赞同其观点和对其真实性负责。

如有侵权、违反国家法律政策行为,请联系我们,我们会第一时间及时清除和处理!

举报反馈邮箱:[email protected]

快速回复 返回顶部 返回列表