找回密码

蓝光电影网

查看: 268|回复: 1

[剧情] 耕耘/你家小孩我來教 Farming.2018.1080p.BluRay.x264-GUACAMOLE 8.73GB

[复制链接]
蓝光币
886
发表于 2020-2-1 00:19:13 | 显示全部楼层 |阅读模式
耕作/你家小孩我來教 Farming.2018.1080p.BluRay.x264-GUACAMOLE 8.73GB-1.png

译  名 耕作 / 你家小孩我來教
片  名 Farming
年  代 2018
产  地 英国
类  别 剧情
语  言 英语
上映日期 2018-09-08(多伦多电影节)
IMDb评分  5.6/10 from 479 users
IMDb链接  https://www.imdb.com/title/tt1127881
豆瓣评分 0/10 from 0 users
豆瓣链接 https://movie.douban.com/subject/3269055/
片  长 107分钟
导  演 阿德沃尔·阿吉纽依-艾格拜吉 Adewale Akinnuoye-Agbaje
编  剧 阿德沃尔·阿吉纽依-艾格拜吉 Adewale Akinnuoye-Agbaje
主  演 凯特·贝金赛尔 Kate Beckinsale
       古古·姆巴塔-劳 Gugu Mbatha-Raw
       阿德沃尔·阿吉纽依-艾格拜吉 Adewale Akinnuoye-Agbaje
       杰美·温斯顿 Jaime Winston
       安·米切尔 Ann Mitchell
       西奥·巴克利姆比格斯 Theo Barklem-Biggs
       李·罗斯 Lee Ross
       柯斯莫·贾维斯 Cosmo Jarvis
       戴姆森·伊德瑞斯 Damson Idris
       詹姆斯·伊莱斯 James Eeles
       戴维·奥拉瓦莱·阿印德 David Olawale Ayinde
       John Dagleish
       Genevieve Nnaji
       Skye Lourie


标  签 英国 | 剧情 | 凯特贝金赛尔 | 2019 | [歐美] | KateBeckinsale

简  介  

  1970、80 年月,數萬名奈及利亞小孩被送到英國白人家庭寄養,他們的怙恃認為,此舉可讓小孩擁有更美好的未來。導演兼編劇本人,小時候就是這樣被送出寄養的小孩之一,片裡配角以其成長經歷為藍本。故事圍繞種族議題,有著《叢林熱》的成分政治關懷,一如《美國 X 檔案》對白人光頭黨提出批评,亦有《以父之名》的勵志动人。本片獨到之處,更在於創作者講述其成長過程所親身經歷的種種兇險,進而帶出一種黑格爾式的主奴辯證視角。
  亞迪威?亞金路維 - 亞格貝,1967 年诞生於英國,怙恃是來自奈及利亞的留學生。诞生 6 週後,被送到白人藍領家庭寄養。成長過程跌跌撞撞,一度加入極右白人光頭黨,亦曾自殺得逞。後改過改过,攻讀法令學位,被相中成為模特兒、演員。本片為其首部執導長片。
  1. Video
  2. ID                                       : 1
  3. Format                                   : AVC
  4. Format/Info                              : Advanced Video Codec
  5. Format profile                           : [email protected]
  6. Format settings                          : CABAC / 5 Ref Frames
  7. Format settings, CABAC                   : Yes
  8. Format settings, Reference frames        : 5 frames
  9. Codec ID                                 : V_MPEG4/ISO/AVC
  10. Duration                                 : 1 h 47 min
  11. Bit rate                                 : 10.1 Mb/s
  12. Width                                    : 1 920 pixels
  13. Height                                   : 808 pixels
  14. Display aspect ratio                     : 2.40:1
  15. Frame rate mode                          : Constant
  16. Frame rate                               : 23.976 (24000/1001) FPS
  17. Color space                              : YUV
  18. Chroma subsampling                       : 4:2:0
  19. Bit depth                                : 8 bits
  20. Scan type                                : Progressive
  21. Bits/(Pixel*Frame)                       : 0.272
  22. Stream size                              : 7.60 GiB (87%)
  23. Writing library                          : x264 core 159 r2991 1771b55
  24. Encoding settings                        : cabac=1 / ref=5 / deblock=1:0:0 / analyse=0x3:0x113 / me=umh / subme=8 / psy=1 / psy_rd=1.00:0.00 / mixed_ref=1 / me_range=16 / chroma_me=1 / trellis=2 / 8x8dct=1 / cqm=0 / deadzone=21,11 / fast_pskip=0 / chroma_qp_offset=-2 / threads=12 / lookahead_threads=2 / sliced_threads=0 / nr=0 / decimate=1 / interlaced=0 / bluray_compat=0 / constrained_intra=0 / bframes=3 / b_pyramid=2 / b_adapt=1 / b_bias=0 / direct=1 / weightb=1 / open_gop=0 / weightp=2 / keyint=250 / keyint_min=23 / scenecut=40 / intra_refresh=0 / rc_lookahead=50 / rc=2pass / mbtree=1 / bitrate=10120 / ratetol=1.0 / qcomp=0.60 / qpmin=0 / qpmax=69 / qpstep=4 / cplxblur=20.0 / qblur=0.5 / ip_ratio=1.40 / aq=1:1.00
  25. Default                                  : Yes
  26. Forced                                   : No

  27. Audio
  28. ID                                       : 2
  29. Format                                   : DTS
  30. Format/Info                              : Digital Theater Systems
  31. Codec ID                                 : A_DTS
  32. Duration                                 : 1 h 47 min
  33. Bit rate mode                            : Constant
  34. Bit rate                                 : 1 509 kb/s
  35. Channel(s)                               : 6 channels
  36. Channel layout                           : C L R Ls Rs LFE
  37. Sampling rate                            : 48.0 kHz
  38. Frame rate                               : 93.750 FPS (512 SPF)
  39. Bit depth                                : 24 bits
  40. Compression mode                         : Lossy
  41. Stream size                              : 1.13 GiB (13%)
  42. Language                                 : English
  43. Default                                  : Yes
  44. Forced                                   : No

  45. Text
  46. ID                                       : 3
  47. Format                                   : UTF-8
  48. Codec ID                                 : S_TEXT/UTF8
  49. Codec ID/Info                            : UTF-8 Plain Text
  50. Duration                                 : 50 s 255 ms
  51. Bit rate                                 : 35 b/s
  52. Count of elements                        : 8
  53. Stream size                              : 220 Bytes (0%)
  54. Language                                 : English
  55. Default                                  : Yes
  56. Forced                                   : Yes

  57. Menu
  58. 00:00:00.000                             : en:00:00:00.000
  59. 00:05:28.036                             : en:00:05:28.036
  60. 00:15:21.462                             : en:00:15:21.462
  61. 00:23:11.223                             : en:00:23:11.223
  62. 00:34:49.587                             : en:00:34:49.587
  63. 00:46:13.688                             : en:00:46:13.688
  64. 00:55:27.449                             : en:00:55:27.449
  65. 01:03:58.168                             : en:01:03:58.168
  66. 01:12:10.451                             : en:01:12:10.451
  67. 01:20:17.771                             : en:01:20:17.771
  68. 01:28:30.889                             : en:01:28:30.889
  69. 01:38:57.223                             : en:01:38:57.223
复制代码

耕作/你家小孩我來教 Farming.2018.1080p.BluRay.x264-GUACAMOLE 8.73GB-2.png






回复

使用道具 举报

懒得打字嘛,点击右侧快捷回复 【右侧内容,后台自定义】
您需要登录后才可以回帖 登录 | 立即加入

本版积分规则

Archiver|小黑屋| 蓝光电影网 |网站地图

Copyright © 2021 Comsenz Inc. Powered by 蓝光电影网

蓝光电影网

本站内容由用户自主分享和转载自互联网,转载目的在于传递更多信息,并不代表本网赞同其观点和对其真实性负责。

如有侵权、违反国家法律政策行为,请联系我们,我们会第一时间及时清除和处理!

举报反馈邮箱:[email protected]

快速回复 返回顶部 返回列表