找回密码

蓝光电影网

查看: 275|回复: 0

[剧情] 浪潮 Waves.2019.720p.BluRay.x264-AAA 5.46GB

[复制链接]
蓝光币
886
发表于 2020-2-1 00:20:58 | 显示全部楼层 |阅读模式
浪潮 Waves.2019.720p.BluRay.x264-AAA 5.46GB-1.png

译  名 浪潮
片  名 Waves
年  代 2019
产  地 美国
类  别 剧情 / 恋爱
语  言 英语
上映日期 2019-08-30(特柳赖德电影节) / 2019-11-15(美国)
IMDb评分  7.8/10 from 4377 users
IMDb链接  https://www.imdb.com/title/tt8652728
豆瓣评分 7.2/10 from 283 users
豆瓣链接 https://movie.douban.com/subject/30263576/
片  长 135分钟
导  演 特里·爱德华·沙尔茨 Trey Edward Shults
编  剧 特里·爱德华·沙尔茨 Trey Edward Shults
主  演 卢卡斯·赫奇斯 Lucas Hedges
       斯特林·K·布朗 Sterling K. Brown
       亚历克萨·德米 Alexa Demie
       小克利夫顿·克林斯 Clifton Collins Jr.
       芮妮·戈兹贝里 Renee Goldsberry
       泰勒·拉塞尔 Taylor Russell
       小凯文·哈里森 Kelvin Harrison Jr.
       大卫·加雷利克 David Garelik
       尼尔·哈夫 Neal Huff
       克利夏·费尔柴尔德 Krisha Fairchild
       阿维斯·玛丽·巴尼斯 Avis-Marie Barnes
       Hanna Balicki
       Steve Heinz
       Sidnei Barboza
       Ellen Marguerite Cullivan
       Gene Mack Daniels


标  签 美国 | 恋爱 | 2019 | 青春 | 音乐 | A24 | 剧情 | 电影

简  介  

  卢卡斯·赫奇斯、斯特尔林·K布朗、小凯文·哈里森(《土壤之界》《黑夜造访》)、泰勒·罗素(《忽然七日》《丢失太空》)加盟A24打造的音乐题材新片《浪潮》(Waves),特里·爱德华·沙尔茨(《黑夜造访》《克利夏》)自编自导,下月在佛罗里达州开拍。
  报告两对年轻情侣在感情的雷区中长大和相爱的故事,被描写为“一部布满戏剧性的歌舞片,有着全新的视角,是一首布满活力、动人肺腑确今世青少年生活的颂歌”。影片几近全程与音乐同步,将一些标志性确今世歌曲与奥斯卡得主Trent Reznor&Atticus Ross(《交际收集》《龙纹身的女孩》)的原创配乐连系在一路。

获奖情况  

  第91届美国国家批评协会奖(2019)
  年度佳片

  第35届美国自力精神奖(2020)
  最好女配角(提名) 泰勒·拉塞尔

  第29届哥谭自力电影奖(2019)
  最好影片(提名)
  年度冲破演员 泰勒·拉塞尔

  第32届芝加哥影评人协会奖(2019)
  最具潜力演员(提名) 泰勒·拉塞尔

  第4届亚特兰大影评人协会奖(2019)
  冲破表演奖 小凯文·哈里森
  1. Video
  2. ID                                       : 1
  3. Format                                   : AVC
  4. Format/Info                              : Advanced Video Codec
  5. Format profile                           : [email protected]
  6. Format settings                          : CABAC / 5 Ref Frames
  7. Format settings, CABAC                   : Yes
  8. Format settings, Reference frames        : 5 frames
  9. Codec ID                                 : V_MPEG4/ISO/AVC
  10. Duration                                 : 2 h 15 min
  11. Bit rate                                 : 4 244 kb/s
  12. Width                                    : 1 280 pixels
  13. Height                                   : 696 pixels
  14. Display aspect ratio                     : 1.85:1
  15. Frame rate mode                          : Constant
  16. Frame rate                               : 23.976 (24000/1001) FPS
  17. Color space                              : YUV
  18. Chroma subsampling                       : 4:2:0
  19. Bit depth                                : 8 bits
  20. Scan type                                : Progressive
  21. Bits/(Pixel*Frame)                       : 0.199
  22. Stream size                              : 4.02 GiB (74%)
  23. Title                                    : Waves.2019.720p.BluRay.x264-AAA
  24. Writing library                          : x264 core 159 r2991 1771b55
  25. Encoding settings                        : cabac=1 / ref=5 / deblock=1:0:0 / analyse=0x3:0x113 / me=umh / subme=8 / psy=1 / psy_rd=1.00:0.00 / mixed_ref=1 / me_range=16 / chroma_me=1 / trellis=1 / 8x8dct=1 / cqm=0 / deadzone=21,11 / fast_pskip=1 / chroma_qp_offset=-2 / threads=22 / lookahead_threads=3 / sliced_threads=0 / nr=0 / decimate=1 / interlaced=0 / bluray_compat=0 / constrained_intra=0 / bframes=3 / b_pyramid=2 / b_adapt=2 / b_bias=0 / direct=3 / weightb=1 / open_gop=0 / weightp=2 / keyint=240 / keyint_min=23 / scenecut=40 / intra_refresh=0 / rc_lookahead=50 / rc=2pass / mbtree=1 / bitrate=4244 / ratetol=1.0 / qcomp=0.60 / qpmin=0 / qpmax=69 / qpstep=4 / cplxblur=20.0 / qblur=0.5 / ip_ratio=1.40 / aq=1:1.00
  26. Default                                  : Yes
  27. Forced                                   : No

  28. Audio
  29. ID                                       : 2
  30. Format                                   : DTS
  31. Format/Info                              : Digital Theater Systems
  32. Codec ID                                 : A_DTS
  33. Duration                                 : 2 h 15 min
  34. Bit rate mode                            : Constant
  35. Bit rate                                 : 1 509 kb/s
  36. Channel(s)                               : 6 channels
  37. Channel layout                           : C L R Ls Rs LFE
  38. Sampling rate                            : 48.0 kHz
  39. Frame rate                               : 93.750 FPS (512 SPF)
  40. Bit depth                                : 24 bits
  41. Compression mode                         : Lossy
  42. Stream size                              : 1.43 GiB (26%)
  43. Title                                    : English Digital Theater Systems (DTS)
  44. Language                                 : English
  45. Default                                  : Yes
  46. Forced                                   : No

  47. Menu
  48. 00:00:00.000                             : :Chapter 01
  49. 00:07:21.816                             : :Chapter 02
  50. 00:16:07.049                             : :Chapter 03
  51. 00:26:52.694                             : :Chapter 04
  52. 00:34:39.369                             : :Chapter 05
  53. 00:40:58.206                             : :Chapter 06
  54. 00:50:10.007                             : :Chapter 07
  55. 00:55:36.291                             : :Chapter 08
  56. 01:04:22.609                             : :Chapter 09
  57. 01:12:01.317                             : :Chapter 10
  58. 01:18:40.883                             : :Chapter 11
  59. 01:26:01.865                             : :Chapter 12
  60. 01:37:00.398                             : :Chapter 13
  61. 01:43:37.044                             : :Chapter 14
  62. 01:57:05.435                             : :Chapter 15
  63. 02:07:17.380                             : :Chapter 16
复制代码

浪潮 Waves.2019.720p.BluRay.x264-AAA 5.46GB-2.png






回复

使用道具 举报

懒得打字嘛,点击右侧快捷回复 【右侧内容,后台自定义】
您需要登录后才可以回帖 登录 | 立即加入

本版积分规则

Archiver|小黑屋| 蓝光电影网 |网站地图

Copyright © 2021 Comsenz Inc. Powered by 蓝光电影网

蓝光电影网

本站内容由用户自主分享和转载自互联网,转载目的在于传递更多信息,并不代表本网赞同其观点和对其真实性负责。

如有侵权、违反国家法律政策行为,请联系我们,我们会第一时间及时清除和处理!

举报反馈邮箱:[email protected]

快速回复 返回顶部 返回列表