找回密码

蓝光电影网

查看: 671|回复: 3

[恐怖] 窥视之眸 The.Stare.2016.JAPANESE.1080p.BluRay.x264.DTS-iKiW 8.50GB

[复制链接]
蓝光币
886
发表于 2020-2-1 00:26:00 | 显示全部楼层 |阅读模式
窥视之眸 The.Stare.2016.JAPANESE.1080p.BluRay.x264.DTS-iKiW 8.50GB-1.png

译  名 窥视之眸 / Nozokime / The Stare
片  名 のぞきめ
年  代 2016
产  地 日本
类  别 可骇
语  言 日语
上映日期 2016-04-02(日本)
IMDb评分  4.5/10 from 54 users
IMDb链接  https://www.imdb.com/title/tt5214752
豆瓣评分 4.6/10 from 1206 users
豆瓣链接 https://movie.douban.com/subject/26586695/
片  长 99分钟
导  演 三木康一郎 K?ichir? Miki
编  剧 铃木谦一 Ken'ichi Suzuki
主  演 板野友美 Tomomi Itano
       白石隼也 Shun'ya Shiraishi
       入来茉里 Mari Iriki
       东智鹤 Chizuru Azuma
       玉城裕规 Yuki Tamaki
       小泽亮太 Ry?ta Ozawa
       石井心愛
       池田铁洋 Tetsuhiro Ikeda
       つぶやきシロー
       石井正则 Masanori Ishii
       吉田钢太郎 K?tar? Yoshida


标  签 可骇 | 日本 | 惊悚 | 2016 | 板野友美 | 日本电影 | 灵异 | 电影

简  介  

  在电视台担任导演助理的三岛彩乃(板野友美 饰),某晚接到外出采访灭亡变乱的告诉。他单独带着装备赶赴事发地址,见证了大门生城户勇太郎惨烈而诡异的死状。事后彩乃对该事务很是在意,而从电视台同侪口中又得知青年的尸身很有疑点。在此以后,彩乃见到了死者的社团同学岩登和世(入来茉里 饰),对方则宣称勇太郎遭到窥视之眸的诅咒才命丧黄泉的。本来勇太郎和和世曾前往某偏僻山村试胆,在那边误入某个祠堂,成果惹上了无处不在的窥视之眸,今后恶运缠身。
  为了一探讨竟,彩乃和男友前往当地一探讨竟,而他们离可骇的泥潭越来越近……
  1. Video
  2. ID                                       : 1
  3. Format                                   : AVC
  4. Format/Info                              : Advanced Video Codec
  5. Format profile                           : [email protected]
  6. Format settings                          : CABAC / 4 Ref Frames
  7. Format settings, CABAC                   : Yes
  8. Format settings, Reference frames        : 4 frames
  9. Codec ID                                 : V_MPEG4/ISO/AVC
  10. Duration                                 : 1 h 39 min
  11. Bit rate                                 : 10.7 Mb/s
  12. Width                                    : 1 920 pixels
  13. Height                                   : 1 040 pixels
  14. Display aspect ratio                     : 1.85:1
  15. Frame rate mode                          : Constant
  16. Frame rate                               : 23.976 (24000/1001) FPS
  17. Color space                              : YUV
  18. Chroma subsampling                       : 4:2:0
  19. Bit depth                                : 8 bits
  20. Scan type                                : Progressive
  21. Bits/(Pixel*Frame)                       : 0.224
  22. Stream size                              : 7.44 GiB (87%)
  23. Writing library                          : x264 core 129 r2245+704+36 8e61944 tMod+MixAQ [[email protected]:2:0 X86_64]
  24. Encoding settings                        : cabac=1 / ref=4 / deblock=1:-3:-3 / analyse=0x3:0x133 / me=umh / subme=11 / psy=1 / fade_compensate=0.00 / psy_rd=1.05:0.10 / mixed_ref=1 / me_range=32 / chroma_me=1 / trellis=2 / 8x8dct=1 / cqm=0 / deadzone=21,11 / fast_pskip=0 / chroma_qp_offset=-3 / threads=18 / lookahead_threads=3 / sliced_threads=0 / nr=0 / decimate=0 / interlaced=0 / bluray_compat=0 / constrained_intra=0 / fgo=0 / bframes=10 / b_pyramid=2 / b_adapt=2 / b_bias=0 / direct=3 / weightb=1 / open_gop=0 / weightp=2 / keyint=250 / keyint_min=23 / scenecut=40 / intra_refresh=0 / rc_lookahead=80 / rc=2pass / mbtree=1 / bitrate=10706 / ratetol=1.0 / qcomp=0.70 / qpmin=0 / qpmax=69 / qpstep=4 / cplxblur=20.0 / qblur=0.5 / ip_ratio=1.40 / aq=1 / aq-strength=0.85 / aq-sensitivity=10.00 / aq-ifactor=1.00 / aq-pfactor=1.00 / aq-bfactor=1.00 / aq2=0
  25. Language                                 : Japanese
  26. Default                                  : Yes
  27. Forced                                   : No
  28. Color range                              : Limited
  29. Matrix coefficients                      : BT.709

  30. Audio
  31. ID                                       : 2
  32. Format                                   : DTS
  33. Format/Info                              : Digital Theater Systems
  34. Codec ID                                 : A_DTS
  35. Duration                                 : 1 h 39 min
  36. Bit rate mode                            : Constant
  37. Bit rate                                 : 1 509 kb/s
  38. Channel(s)                               : 6 channels
  39. Channel layout                           : C L R Ls Rs LFE
  40. Sampling rate                            : 48.0 kHz
  41. Frame rate                               : 93.750 FPS (512 SPF)
  42. Bit depth                                : 16 bits
  43. Compression mode                         : Lossy
  44. Stream size                              : 1.05 GiB (12%)
  45. Language                                 : Japanese
  46. Default                                  : Yes
  47. Forced                                   : No

  48. Text #1
  49. ID                                       : 3
  50. Format                                   : UTF-8
  51. Codec ID                                 : S_TEXT/UTF8
  52. Codec ID/Info                            : UTF-8 Plain Text
  53. Duration                                 : 1 h 38 min
  54. Bit rate                                 : 31 b/s
  55. Count of elements                        : 665
  56. Stream size                              : 22.7 KiB (0%)
  57. Language                                 : English
  58. Default                                  : Yes
  59. Forced                                   : No

  60. Text #2
  61. ID                                       : 4
  62. Format                                   : ASS
  63. Codec ID                                 : S_TEXT/ASS
  64. Codec ID/Info                            : Advanced Sub Station Alpha
  65. Duration                                 : 1 h 37 min
  66. Bit rate                                 : 58 b/s
  67. Count of elements                        : 850
  68. Compression mode                         : Lossless
  69. Stream size                              : 42.3 KiB (0%)
  70. Title                                    : Simplified
  71. Language                                 : Chinese
  72. Default                                  : No
  73. Forced                                   : No

  74. Text #3
  75. ID                                       : 5
  76. Format                                   : ASS
  77. Codec ID                                 : S_TEXT/ASS
  78. Codec ID/Info                            : Advanced Sub Station Alpha
  79. Duration                                 : 1 h 37 min
  80. Bit rate                                 : 58 b/s
  81. Count of elements                        : 850
  82. Compression mode                         : Lossless
  83. Stream size                              : 42.3 KiB (0%)
  84. Title                                    : Traditional
  85. Language                                 : Chinese
  86. Default                                  : No
  87. Forced                                   : No

  88. Menu
  89. 00:00:00.000                             : en:00:00:00.000
  90. 00:12:51.854                             : en:00:12:51.854
  91. 00:26:38.096                             : en:00:26:38.096
  92. 00:34:41.204                             : en:00:34:41.204
  93. 00:43:21.724                             : en:00:43:21.724
  94. 00:50:43.123                             : en:00:50:43.123
  95. 00:58:34.260                             : en:00:58:34.260
  96. 01:13:18.060                             : en:01:13:18.060
  97. 01:23:04.145                             : en:01:23:04.145
  98. 01:30:15.284                             : en:01:30:15.284
  99. 01:39:27.961                             : en:01:39:27.961
复制代码

窥视之眸 The.Stare.2016.JAPANESE.1080p.BluRay.x264.DTS-iKiW 8.50GB-2.png 窥视之眸 The.Stare.2016.JAPANESE.1080p.BluRay.x264.DTS-iKiW 8.50GB-3.png 窥视之眸 The.Stare.2016.JAPANESE.1080p.BluRay.x264.DTS-iKiW 8.50GB-4.png






回复

使用道具 举报

懒得打字嘛,点击右侧快捷回复 【右侧内容,后台自定义】
您需要登录后才可以回帖 登录 | 立即加入

本版积分规则

Archiver|小黑屋| 蓝光电影网 |网站地图

Copyright © 2021 Comsenz Inc. Powered by 蓝光电影网

蓝光电影网

本站内容由用户自主分享和转载自互联网,转载目的在于传递更多信息,并不代表本网赞同其观点和对其真实性负责。

如有侵权、违反国家法律政策行为,请联系我们,我们会第一时间及时清除和处理!

举报反馈邮箱:[email protected]

快速回复 返回顶部 返回列表