找回密码

蓝光电影网

查看: 475|回复: 4

[剧情] S風暴 S.Storm.2016.CHINESE.1080p.BluRay.x264-HDC 8.62GB

[复制链接]
蓝光币
886
发表于 2020-2-1 00:28:01 | 显示全部楼层 |阅读模式
S風暴 S.Storm.2016.CHINESE.1080p.BluRay.x264-HDC 8.62GB-1.png

译  名 反贪风暴2 / S Storm / Z风暴2
片  名 S風暴
年  代 2016
产  地 中国大陆 / 中国香港
类  别 剧情 / 犯罪
语  言 汉语普通话 / 粤语
上映日期 2016-09-14(中国大陆)
IMDb评分  5.1/10 from 525 users
IMDb链接  https://www.imdb.com/title/tt5998744
豆瓣评分 5.7/10 from 48658 users
豆瓣链接 https://movie.douban.com/subject/26352445/
片  长 95分钟
导  演 林德禄  David Lam
编  剧 黄浩华 Ho-Wa Wong / 林德禄  David Lam
主  演 古天乐 Louis Koo
       张智霖 Julian Cheung
       周渝民 Vic Chou
       蔡少芬 Ada Choi
       林保怡 Bowie Lam
       卢海鹏 Hoi-Pang Lo
       石修 Sau Sek
       曾志伟 Eric Tsang
       陈静 Dada Chan
       曾国祥 Derek Tsang
       盛君 Janelle Sing
       张松枝 Deno Cheung
       姜皓文 Philip Keung Ho-Man
       蔡洁 Jacky Cai
       欧锦棠 Stephen Au
       徐靖雯 Jenny Xu
       宋海颉 Haijie Song
       陈宇琛 Sam Chan Yu-Sum
       陆骏光 Alan Luk Chun-Kwong
       李忠希 Jones Lee
       张同祖 Tung Cho Cheung
       郑敬基 King-Kei Cheng
       郭锋 Fung Kwok
       尹子维 Terence Yin


标  签 香港 | 犯罪 | 警匪 | 2016 | ICAC | 行动 | 电影香港 | 剧情

简  介  

  廉政公署按照观察,发现马会的球赛博彩操盘手(尹子维 饰)涉嫌违法行为。在试图观察这人的时辰,这人却遭杀手(周渝民 饰)杀戮。廉署首席观察主任陆志廉(古天乐 饰)作为目击证人遭到重案组督察刘保强(张智霖 饰)的观察。在此以后,廉署和警方结合展开行动,只不外在这一进程中,双方相互防御,关系奥妙。按照刘保强的线人供给的信息,博彩幕后操盘手是一个被称为华教员的奥秘人物。陆志廉顺藤摸瓜,逼近猎物,怎奈对方额外狡猾,被对方接二连三逃走。在这一进程中,马会中又有前廉署职员遇害。
  为了金钱好处,人性尽失……
  1. Video
  2. ID                                       : 1
  3. Format                                   : AVC
  4. Format/Info                              : Advanced Video Codec
  5. Format profile                           : [email protected]
  6. Format settings                          : CABAC / 5 Ref Frames
  7. Format settings, CABAC                   : Yes
  8. Format settings, Reference frames        : 5 frames
  9. Codec ID                                 : V_MPEG4/ISO/AVC
  10. Duration                                 : 1 h 34 min
  11. Bit rate                                 : 12.4 Mb/s
  12. Width                                    : 1 920 pixels
  13. Height                                   : 804 pixels
  14. Display aspect ratio                     : 2.40:1
  15. Frame rate mode                          : Constant
  16. Frame rate                               : 24.000 FPS
  17. Color space                              : YUV
  18. Chroma subsampling                       : 4:2:0
  19. Bit depth                                : 8 bits
  20. Scan type                                : Progressive
  21. Bits/(Pixel*Frame)                       : 0.335
  22. Stream size                              : 8.20 GiB (95%)
  23. Writing library                          : x264 core 148 r2721kMod 72d53ab
  24. Encoding settings                        : cabac=1 / ref=5 / deblock=1:-3:-3 / analyse=0x3:0x133 / me=umh / subme=11 / psy=1 / fade_compensate=0.00 / psy_rd=0.90:0.00 / mixed_ref=1 / me_range=64 / chroma_me=1 / trellis=2 / 8x8dct=1 / cqm=0 / deadzone=21,11 / fast_pskip=0 / chroma_qp_offset=-2 / threads=12 / lookahead_threads=2 / sliced_threads=0 / nr=0 / decimate=0 / interlaced=0 / bluray_compat=0 / constrained_intra=0 / fgo=0 / bframes=8 / b_pyramid=2 / b_adapt=2 / b_bias=0 / direct=3 / weightb=1 / open_gop=0 / weightp=2 / keyint=240 / keyint_min=24 / scenecut=40 / intra_refresh=0 / rc=2pass / mbtree=0 / bitrate=12400 / ratetol=1.0 / qcomp=0.70 / qpmin=0 / qpmax=69 / qpstep=4 / cplxblur=20.0 / qblur=0.5 / ip_ratio=1.25 / pb_ratio=1.20 / aq=3:0.80
  25. Default                                  : Yes
  26. Forced                                   : No

  27. Audio
  28. ID                                       : 2
  29. Format                                   : AC-3
  30. Format/Info                              : Audio Coding 3
  31. Commercial name                          : Dolby Digital
  32. Codec ID                                 : A_AC3
  33. Duration                                 : 1 h 34 min
  34. Bit rate mode                            : Constant
  35. Bit rate                                 : 640 kb/s
  36. Channel(s)                               : 6 channels
  37. Channel layout                           : L R C LFE Ls Rs
  38. Sampling rate                            : 48.0 kHz
  39. Frame rate                               : 31.250 FPS (1536 SPF)
  40. Bit depth                                : 16 bits
  41. Compression mode                         : Lossy
  42. Stream size                              : 434 MiB (5%)
  43. Language                                 : Chinese
  44. Service kind                             : Complete Main
  45. Default                                  : Yes
  46. Forced                                   : No

  47. Text
  48. ID                                       : 3
  49. Format                                   : UTF-8
  50. Codec ID                                 : S_TEXT/UTF8
  51. Codec ID/Info                            : UTF-8 Plain Text
  52. Duration                                 : 1 h 29 min
  53. Bit rate                                 : 49 b/s
  54. Count of elements                        : 1228
  55. Stream size                              : 32.0 KiB (0%)
  56. Language                                 : English
  57. Default                                  : Yes
  58. Forced                                   : No

  59. Menu
  60. 00:00:00.000                             : en:00:00:00.000
  61. 00:08:02.792                             : en:00:08:02.792
  62. 00:19:23.167                             : en:00:19:23.167
  63. 00:26:26.708                             : en:00:26:26.708
  64. 00:33:55.833                             : en:00:33:55.833
  65. 00:39:33.833                             : en:00:39:33.833
  66. 00:45:57.583                             : en:00:45:57.583
  67. 00:56:02.708                             : en:00:56:02.708
  68. 01:03:09.417                             : en:01:03:09.417
  69. 01:11:00.375                             : en:01:11:00.375
  70. 01:18:26.250                             : en:01:18:26.250
  71. 01:29:47.375                             : en:01:29:47.375
复制代码

S風暴 S.Storm.2016.CHINESE.1080p.BluRay.x264-HDC 8.62GB-2.png S風暴 S.Storm.2016.CHINESE.1080p.BluRay.x264-HDC 8.62GB-3.png S風暴 S.Storm.2016.CHINESE.1080p.BluRay.x264-HDC 8.62GB-4.png





回复

使用道具 举报

蓝光币
863
发表于 2020-2-1 09:17:15 | 显示全部楼层
谢谢楼主无私分享。
回复 支持 反对

使用道具 举报

懒得打字嘛,点击右侧快捷回复 【右侧内容,后台自定义】
您需要登录后才可以回帖 登录 | 立即加入

本版积分规则

Archiver|小黑屋| 蓝光电影网 |网站地图

Copyright © 2021 Comsenz Inc. Powered by 蓝光电影网

蓝光电影网

本站内容由用户自主分享和转载自互联网,转载目的在于传递更多信息,并不代表本网赞同其观点和对其真实性负责。

如有侵权、违反国家法律政策行为,请联系我们,我们会第一时间及时清除和处理!

举报反馈邮箱:[email protected]

快速回复 返回顶部 返回列表