找回密码

蓝光电影网

查看: 304|回复: 0

[剧情] 今天开始世界属于你/今天开始世界是你的 Her.Sketchbook.2017.JAPANESE.1080p.BluRay.x264-iKiW 9.00GB

[复制链接]
蓝光币
886
发表于 2020-2-1 00:32:28 | 显示全部楼层 |阅读模式
明天起头天下属于你/明天起头天下是你的 Her.Sketchbook.2017.JAPANESE.1080p.BluRay.x264-iKiW 9.00GB-1.png

译  名 明天起头天下属于你 / 明天起头,天下是你的
片  名 天下は本日から君のもの
年  代 2017
产  地 日本
类  别 剧情 / 恋爱
语  言 日语
上映日期 2017-07-15(日本)
IMDb评分  6.4/10 from 112 users
IMDb链接  https://www.imdb.com/title/tt6323858
豆瓣评分 6.9/10 from 2357 users
豆瓣链接 https://movie.douban.com/subject/26932875/
片  长 106分钟
导  演 尾崎将也 Masaya Ozaki
编  剧 尾崎将也 Masaya Ozaki
主  演 门胁麦 Mugi Kadowaki
       三浦贵大 Takahiro Miura
       比留川游 You Hirukawa
       岡本拓朗
       安井顺平 Junpei Yasui
       驹木根隆介 Ryusuke Komakine
       槙田雄司 Makita Sports
       江原由希子 YOU


标  签 日本 | 长大 | 日本电影 | 剧情 | 门胁麦 | 2017 | 日影 | 人生

简  介  

  著名日剧编剧尾崎将也导演的完全原创映画,一个关于宅女走向社会的平常物语。
  1. Video
  2. ID                                       : 1
  3. Format                                   : AVC
  4. Format/Info                              : Advanced Video Codec
  5. Format profile                           : [email protected]
  6. Format settings                          : CABAC / 4 Ref Frames
  7. Format settings, CABAC                   : Yes
  8. Format settings, Reference frames        : 4 frames
  9. Codec ID                                 : V_MPEG4/ISO/AVC
  10. Duration                                 : 1 h 46 min
  11. Bit rate                                 : 11.5 Mb/s
  12. Width                                    : 1 920 pixels
  13. Height                                   : 1 038 pixels
  14. Display aspect ratio                     : 1.85:1
  15. Frame rate mode                          : Constant
  16. Frame rate                               : 23.976 (24000/1001) FPS
  17. Color space                              : YUV
  18. Chroma subsampling                       : 4:2:0
  19. Bit depth                                : 8 bits
  20. Scan type                                : Progressive
  21. Bits/(Pixel*Frame)                       : 0.240
  22. Stream size                              : 8.51 GiB (95%)
  23. Writing library                          : x264 core 129 r2245+704+36 8e61944 tMod+MixAQ [[email protected]:2:0 X86_64]
  24. Encoding settings                        : cabac=1 / ref=4 / deblock=1:-3:-3 / analyse=0x3:0x133 / me=umh / subme=11 / psy=1 / fade_compensate=0.00 / psy_rd=1.05:0.10 / mixed_ref=1 / me_range=64 / chroma_me=1 / trellis=2 / 8x8dct=1 / cqm=0 / deadzone=21,11 / fast_pskip=0 / chroma_qp_offset=-3 / threads=18 / lookahead_threads=3 / sliced_threads=0 / nr=0 / decimate=0 / interlaced=0 / bluray_compat=0 / constrained_intra=0 / fgo=0 / bframes=10 / b_pyramid=2 / b_adapt=2 / b_bias=0 / direct=3 / weightb=1 / open_gop=0 / weightp=2 / keyint=250 / keyint_min=23 / scenecut=40 / intra_refresh=0 / rc=2pass / mbtree=0 / bitrate=11460 / ratetol=1.0 / qcomp=0.70 / qpmin=0 / qpmax=69 / qpstep=4 / cplxblur=20.0 / qblur=0.5 / ip_ratio=1.40 / pb_ratio=1.30 / aq=1 / aq-strength=0.90 / aq-sensitivity=10.00 / aq-ifactor=1.00 / aq-pfactor=1.00 / aq-bfactor=1.00 / aq2=0
  25. Language                                 : Japanese
  26. Default                                  : Yes
  27. Forced                                   : No

  28. Audio
  29. ID                                       : 2
  30. Format                                   : AC-3
  31. Format/Info                              : Audio Coding 3
  32. Commercial name                          : Dolby Digital
  33. Codec ID                                 : A_AC3
  34. Duration                                 : 1 h 46 min
  35. Bit rate mode                            : Constant
  36. Bit rate                                 : 640 kb/s
  37. Channel(s)                               : 6 channels
  38. Channel layout                           : L R C LFE Ls Rs
  39. Sampling rate                            : 48.0 kHz
  40. Frame rate                               : 31.250 FPS (1536 SPF)
  41. Bit depth                                : 16 bits
  42. Compression mode                         : Lossy
  43. Stream size                              : 487 MiB (5%)
  44. Language                                 : Japanese
  45. Service kind                             : Complete Main
  46. Default                                  : Yes
  47. Forced                                   : No

  48. Text #1
  49. ID                                       : 3
  50. Format                                   : UTF-8
  51. Codec ID                                 : S_TEXT/UTF8
  52. Codec ID/Info                            : UTF-8 Plain Text
  53. Duration                                 : 1 h 39 min
  54. Bit rate                                 : 28 b/s
  55. Count of elements                        : 933
  56. Stream size                              : 20.7 KiB (0%)
  57. Language                                 : English
  58. Default                                  : Yes
  59. Forced                                   : No

  60. Text #2
  61. ID                                       : 4
  62. Format                                   : ASS
  63. Codec ID                                 : S_TEXT/ASS
  64. Codec ID/Info                            : Advanced Sub Station Alpha
  65. Duration                                 : 1 h 43 min
  66. Bit rate                                 : 65 b/s
  67. Count of elements                        : 997
  68. Compression mode                         : Lossless
  69. Stream size                              : 49.9 KiB (0%)
  70. Language                                 : Chinese
  71. Default                                  : No
  72. Forced                                   : No

  73. Menu
  74. 00:00:00.000                             : en:00:00:00.000
  75. 00:00:39.038                             : en:00:00:39.038
  76. 00:08:24.545                             : en:00:08:24.545
  77. 00:16:33.659                             : en:00:16:33.659
  78. 00:27:29.689                             : en:00:27:29.689
  79. 00:39:44.715                             : en:00:39:44.715
  80. 00:51:21.995                             : en:00:51:21.995
  81. 01:02:38.421                             : en:01:02:38.421
  82. 01:17:57.422                             : en:01:17:57.422
  83. 01:30:49.777                             : en:01:30:49.777
  84. 01:40:21.014                             : en:01:40:21.014
  85. 01:46:23.168                             : en:01:46:23.168
复制代码

明天起头天下属于你/明天起头天下是你的 Her.Sketchbook.2017.JAPANESE.1080p.BluRay.x264-iKiW 9.00GB-1.png 明天起头天下属于你/明天起头天下是你的 Her.Sketchbook.2017.JAPANESE.1080p.BluRay.x264-iKiW 9.00GB-3.png 明天起头天下属于你/明天起头天下是你的 Her.Sketchbook.2017.JAPANESE.1080p.BluRay.x264-iKiW 9.00GB-4.png






回复

使用道具 举报

懒得打字嘛,点击右侧快捷回复 【右侧内容,后台自定义】
您需要登录后才可以回帖 登录 | 立即加入

本版积分规则

Archiver|小黑屋| 蓝光电影网 |网站地图

Copyright © 2021 Comsenz Inc. Powered by 蓝光电影网

蓝光电影网

本站内容由用户自主分享和转载自互联网,转载目的在于传递更多信息,并不代表本网赞同其观点和对其真实性负责。

如有侵权、违反国家法律政策行为,请联系我们,我们会第一时间及时清除和处理!

举报反馈邮箱:[email protected]

快速回复 返回顶部 返回列表