找回密码

蓝光电影网

查看: 427|回复: 1

[恐怖] 剧场灵 Ghost.Theater.2015.JAPANESE.1080p.BluRay.x264.DTS-iKiW 8.69GB

[复制链接]
蓝光币
886
发表于 2020-2-1 00:33:26 | 显示全部楼层 |阅读模式
戏院灵 Ghost.Theater.2015.JAPANESE.1080p.BluRay.x264.DTS-iKiW 8.69GB-1.png

译  名 戏院灵 / Ghost Theater
片  名 劇場霊
年  代 2015
产  地 日本
类  别 可骇
语  言 日语
上映日期 2015-11-21(日本)
IMDb评分  4.6/10 from 261 users
IMDb链接  https://www.imdb.com/title/tt4289298
豆瓣评分 4.2/10 from 954 users
豆瓣链接 https://movie.douban.com/subject/25955379/
片  长 99分钟
导  演 中田秀夫 Hideo Nakata
编  剧 加藤淳也 / 三宅隆太 Ry?ta Miyake
主  演 岛崎遥香 Haruka Shimazaki
       足立梨花 Rika Adachi
       高田里穗 Riho Takada
       町田启太 Keita Machida
       中村育二 Ikuji Nakamura
       小市慢太郎 Mantar? Koichi


标  签 日本 | 可骇 | 日本电影 | 可骇片 | 惊悚 | 2015 | 中田秀夫 | 島崎遥香

简  介  

  水树沙罗(岛崎遥香 饰)是一个在演艺圈打拼多年的青年女演员,虽然她尽力考验演技,勤恳专注,却始终未获得众人的关注。在此时代她遭到来自事务所的压力,两者相权之际终极挑选加入剧作家锦野豪太(小市慢太郎 饰)的新作《鲜血的呼唤》的试镜。《鲜血的呼唤》按照史上实在人物嗜血如命的伊丽莎白的故事改编,为了美这个女人不惜摧残新鲜的生命。沙罗与同事务所小著名望的女星筱原葵(高田里穗 饰)一同试镜,两人终极别离获得了农家女孩安娜以及配角伊丽莎白的脚色。
  在排演进程中,放置在舞台中心的人偶似乎有了自己的认识,让本就为了荣光而近乎癫狂的女子们更走向领会体的边沿……
  1. Video
  2. ID                                       : 1
  3. Format                                   : AVC
  4. Format/Info                              : Advanced Video Codec
  5. Format profile                           : [email protected]
  6. Format settings                          : CABAC / 4 Ref Frames
  7. Format settings, CABAC                   : Yes
  8. Format settings, Reference frames        : 4 frames
  9. Codec ID                                 : V_MPEG4/ISO/AVC
  10. Duration                                 : 1 h 39 min
  11. Bit rate                                 : 11.0 Mb/s
  12. Width                                    : 1 920 pixels
  13. Height                                   : 1 036 pixels
  14. Display aspect ratio                     : 1.85:1
  15. Frame rate mode                          : Constant
  16. Frame rate                               : 23.976 (24000/1001) FPS
  17. Color space                              : YUV
  18. Chroma subsampling                       : 4:2:0
  19. Bit depth                                : 8 bits
  20. Scan type                                : Progressive
  21. Bits/(Pixel*Frame)                       : 0.231
  22. Stream size                              : 7.63 GiB (88%)
  23. Writing library                          : x264 core 129 r2245+704+36 8e61944 tMod+MixAQ [[email protected]:2:0 X86_64]
  24. Encoding settings                        : cabac=1 / ref=4 / deblock=1:-3:-3 / analyse=0x3:0x133 / me=umh / subme=11 / psy=1 / fade_compensate=0.00 / psy_rd=1.05:0.10 / mixed_ref=1 / me_range=64 / chroma_me=1 / trellis=2 / 8x8dct=1 / cqm=0 / deadzone=21,11 / fast_pskip=0 / chroma_qp_offset=-3 / threads=18 / lookahead_threads=3 / sliced_threads=0 / nr=0 / decimate=0 / interlaced=0 / bluray_compat=0 / constrained_intra=0 / fgo=0 / bframes=10 / b_pyramid=2 / b_adapt=2 / b_bias=0 / direct=3 / weightb=1 / open_gop=0 / weightp=2 / keyint=250 / keyint_min=23 / scenecut=40 / intra_refresh=0 / rc_lookahead=80 / rc=2pass / mbtree=1 / bitrate=11002 / ratetol=1.0 / qcomp=0.70 / qpmin=0 / qpmax=69 / qpstep=4 / cplxblur=20.0 / qblur=0.5 / ip_ratio=1.40 / aq=1 / aq-strength=0.85 / aq-sensitivity=10.00 / aq-ifactor=1.00 / aq-pfactor=1.00 / aq-bfactor=1.00 / aq2=0
  25. Language                                 : Japanese
  26. Default                                  : Yes
  27. Forced                                   : No

  28. Audio
  29. ID                                       : 2
  30. Format                                   : DTS
  31. Format/Info                              : Digital Theater Systems
  32. Codec ID                                 : A_DTS
  33. Duration                                 : 1 h 39 min
  34. Bit rate mode                            : Constant
  35. Bit rate                                 : 1 509 kb/s
  36. Channel(s)                               : 6 channels
  37. Channel layout                           : C L R Ls Rs LFE
  38. Sampling rate                            : 48.0 kHz
  39. Frame rate                               : 93.750 FPS (512 SPF)
  40. Bit depth                                : 24 bits
  41. Compression mode                         : Lossy
  42. Stream size                              : 1.05 GiB (12%)
  43. Language                                 : Japanese
  44. Default                                  : Yes
  45. Forced                                   : No

  46. Text #1
  47. ID                                       : 3
  48. Format                                   : UTF-8
  49. Codec ID                                 : S_TEXT/UTF8
  50. Codec ID/Info                            : UTF-8 Plain Text
  51. Duration                                 : 1 h 33 min
  52. Bit rate                                 : 21 b/s
  53. Count of elements                        : 630
  54. Stream size                              : 14.8 KiB (0%)
  55. Language                                 : English
  56. Default                                  : Yes
  57. Forced                                   : No

  58. Text #2
  59. ID                                       : 4
  60. Format                                   : ASS
  61. Codec ID                                 : S_TEXT/ASS
  62. Codec ID/Info                            : Advanced Sub Station Alpha
  63. Duration                                 : 1 h 33 min
  64. Bit rate                                 : 77 b/s
  65. Count of elements                        : 917
  66. Compression mode                         : Lossless
  67. Stream size                              : 53.2 KiB (0%)
  68. Language                                 : Chinese
  69. Default                                  : No
  70. Forced                                   : No

  71. Menu
  72. 00:00:00.000                             : en:00:00:00.000
  73. 00:04:53.584                             : en:00:04:53.584
  74. 00:08:55.701                             : en:00:08:55.701
  75. 00:19:20.617                             : en:00:19:20.617
  76. 00:28:30.708                             : en:00:28:30.708
  77. 00:36:26.350                             : en:00:36:26.350
  78. 00:46:37.503                             : en:00:46:37.503
  79. 01:00:32.420                             : en:01:00:32.420
  80. 01:11:31.203                             : en:01:11:31.203
  81. 01:19:45.113                             : en:01:19:45.113
  82. 01:33:30.521                             : en:01:33:30.521
  83. 01:36:01.172                             : en:01:36:01.172
  84. 01:39:23.958                             : en:01:39:23.958
复制代码

戏院灵 Ghost.Theater.2015.JAPANESE.1080p.BluRay.x264.DTS-iKiW 8.69GB-2.png 戏院灵 Ghost.Theater.2015.JAPANESE.1080p.BluRay.x264.DTS-iKiW 8.69GB-2.png 戏院灵 Ghost.Theater.2015.JAPANESE.1080p.BluRay.x264.DTS-iKiW 8.69GB-4.png






回复

使用道具 举报

懒得打字嘛,点击右侧快捷回复 【右侧内容,后台自定义】
您需要登录后才可以回帖 登录 | 立即加入

本版积分规则

Archiver|小黑屋| 蓝光电影网 |网站地图

Copyright © 2021 Comsenz Inc. Powered by 蓝光电影网

蓝光电影网

本站内容由用户自主分享和转载自互联网,转载目的在于传递更多信息,并不代表本网赞同其观点和对其真实性负责。

如有侵权、违反国家法律政策行为,请联系我们,我们会第一时间及时清除和处理!

举报反馈邮箱:[email protected]

快速回复 返回顶部 返回列表