找回密码

蓝光电影网

查看: 486|回复: 1

[喜剧] 银河街道 Galaxy.Turnpike.2015.JAPANESE.1080p.BluRay.x264.DTS-iKiW 8.50GB

[复制链接]
蓝光币
886
发表于 2020-2-1 00:34:31 | 显示全部楼层 |阅读模式
银河街道 Galaxy.Turnpike.2015.JAPANESE.1080p.BluRay.x264.DTS-iKiW 8.50GB-1.png

译  名 银河街道 / Galaxy Turnpike / 银河街道搞搞搞(港)
片  名 ギャラクシー街道
年  代 2015
产  地 日本
类  别 笑剧 / 科幻
语  言 日语
上映日期 2015-10-24(日本)
IMDb评分  4.7/10 from 176 users
IMDb链接  https://www.imdb.com/title/tt4440114
豆瓣评分 5.6/10 from 2006 users
豆瓣链接 https://movie.douban.com/subject/26323548/
片  长 110分钟
导  演 三谷幸喜 K?ki Mitani
编  剧 三谷幸喜 K?ki Mitani
主  演 香取慎吾 Shingo Katori
       绫濑遥 Haruka Ayase
       优香 Yuka
       尾原善 Zen Kajiwara
       远藤宪一 Ken'ichi End?
       小栗旬 Shun Oguri
       秋元才加 Sayaka Akimoto
       阿南健治 Kenji Anan
       西川贵教 Takanori Nishikawa
       段田安则 Yasunori Danda
       浅野和之 Kazuyuki Asano
       山本耕史 K?ji Yamamoto
       田村梨果 Rika Tamura
       石丸干二 Kanji Ishimaru
       大竹忍 Shinobu ?take
       西田敏行 Toshiyuki Nishida


标  签 日本 | 2015 | 笑剧 | 科幻 | 剧情 | 温情 | 恋爱 | 星际

简  介  

  未来天下科技高度发财,星际观光不再是胡想。在木星和土星之间曾有一个繁华一时的空间殖民地“涡潮”,从地球专门有一条名为246666号公路的银河街道通往殖民地。不外在通车150年后,银河街道渐渐衰落,面临拔除的命运。在这条路上,有一条小小的汉堡店,由极端酷爱汉堡的店长诺亚(香取慎吾 饰)和妻子诺厄(绫濑遥 饰)配合经营。比来,诺亚思疑妻子有外遇,为此内心不安。这一天,诺亚的旧爱(优香 饰)带着怪异的丈夫(梶原善 饰)出现,让诺厄心中升起不安。与此同时,五花八门的人等相继来到店里,有的渴望来一次太空艳遇,有的决议吐露心中的奥秘,有的固执追求诺厄,有的则被希奇的幻觉困扰。
  在这条被很多人渐渐忘记的街道上,心爱的故事交替上演……
  1. Video
  2. ID                                       : 1
  3. Format                                   : AVC
  4. Format/Info                              : Advanced Video Codec
  5. Format profile                           : [email protected]
  6. Format settings                          : CABAC / 5 Ref Frames
  7. Format settings, CABAC                   : Yes
  8. Format settings, Reference frames        : 5 frames
  9. Codec ID                                 : V_MPEG4/ISO/AVC
  10. Duration                                 : 1 h 49 min
  11. Bit rate                                 : 10.3 Mb/s
  12. Width                                    : 1 920 pixels
  13. Height                                   : 804 pixels
  14. Display aspect ratio                     : 2.40:1
  15. Frame rate mode                          : Constant
  16. Frame rate                               : 23.976 (24000/1001) FPS
  17. Color space                              : YUV
  18. Chroma subsampling                       : 4:2:0
  19. Bit depth                                : 8 bits
  20. Scan type                                : Progressive
  21. Bits/(Pixel*Frame)                       : 0.279
  22. Stream size                              : 7.90 GiB (93%)
  23. Writing library                          : x264 core 129 r2245+704+36 8e61944 tMod+MixAQ [[email protected]:2:0 X86_64]
  24. Encoding settings                        : cabac=1 / ref=5 / deblock=1:-3:-3 / analyse=0x3:0x133 / me=umh / subme=11 / psy=1 / fade_compensate=0.00 / psy_rd=1.05:0.10 / mixed_ref=1 / me_range=64 / chroma_me=1 / trellis=2 / 8x8dct=1 / cqm=0 / deadzone=21,11 / fast_pskip=0 / chroma_qp_offset=-3 / threads=18 / lookahead_threads=3 / sliced_threads=0 / nr=0 / decimate=0 / interlaced=0 / bluray_compat=0 / constrained_intra=0 / fgo=0 / bframes=10 / b_pyramid=2 / b_adapt=2 / b_bias=0 / direct=3 / weightb=1 / open_gop=0 / weightp=2 / keyint=250 / keyint_min=23 / scenecut=40 / intra_refresh=0 / rc_lookahead=80 / rc=2pass / mbtree=1 / bitrate=10344 / ratetol=1.0 / qcomp=0.70 / qpmin=0 / qpmax=69 / qpstep=4 / cplxblur=20.0 / qblur=0.5 / ip_ratio=1.40 / aq=1 / aq-strength=0.85 / aq-sensitivity=10.00 / aq-ifactor=1.00 / aq-pfactor=1.00 / aq-bfactor=1.00 / aq2=0
  25. Language                                 : Japanese
  26. Default                                  : Yes
  27. Forced                                   : No

  28. Audio
  29. ID                                       : 2
  30. Format                                   : DTS
  31. Format/Info                              : Digital Theater Systems
  32. Codec ID                                 : A_DTS
  33. Duration                                 : 1 h 49 min
  34. Bit rate mode                            : Constant
  35. Bit rate                                 : 768 kb/s
  36. Channel(s)                               : 6 channels
  37. Channel layout                           : C L R Ls Rs LFE
  38. Sampling rate                            : 48.0 kHz
  39. Frame rate                               : 93.750 FPS (512 SPF)
  40. Bit depth                                : 24 bits
  41. Compression mode                         : Lossy
  42. Stream size                              : 601 MiB (7%)
  43. Language                                 : Japanese
  44. Default                                  : Yes
  45. Forced                                   : No

  46. Text #1
  47. ID                                       : 3
  48. Format                                   : UTF-8
  49. Codec ID                                 : S_TEXT/UTF8
  50. Codec ID/Info                            : UTF-8 Plain Text
  51. Duration                                 : 1 h 45 min
  52. Bit rate                                 : 43 b/s
  53. Count of elements                        : 1327
  54. Stream size                              : 33.8 KiB (0%)
  55. Language                                 : English
  56. Default                                  : Yes
  57. Forced                                   : No

  58. Text #2
  59. ID                                       : 4
  60. Format                                   : ASS
  61. Codec ID                                 : S_TEXT/ASS
  62. Codec ID/Info                            : Advanced Sub Station Alpha
  63. Duration                                 : 1 h 45 min
  64. Bit rate                                 : 100 b/s
  65. Count of elements                        : 1632
  66. Compression mode                         : Lossless
  67. Stream size                              : 77.8 KiB (0%)
  68. Language                                 : Chinese
  69. Default                                  : No
  70. Forced                                   : No

  71. Menu
  72. 00:00:00.000                             : en:00:00:00.000
  73. 00:01:02.479                             : en:00:01:02.479
  74. 00:03:53.691                             : en:00:03:53.691
  75. 00:04:50.873                             : en:00:04:50.873
  76. 00:06:25.176                             : en:00:06:25.176
  77. 00:07:56.392                             : en:00:07:56.392
  78. 00:11:53.254                             : en:00:11:53.254
  79. 00:13:38.734                             : en:00:13:38.734
  80. 00:17:22.708                             : en:00:17:22.708
  81. 00:20:07.414                             : en:00:20:07.414
  82. 00:21:24.700                             : en:00:21:24.700
  83. 00:22:24.009                             : en:00:22:24.009
  84. 00:23:50.262                             : en:00:23:50.262
  85. 00:25:46.795                             : en:00:25:46.795
  86. 00:30:26.449                             : en:00:30:26.449
  87. 00:35:04.977                             : en:00:35:04.977
  88. 00:37:16.150                             : en:00:37:16.150
  89. 00:38:52.163                             : en:00:38:52.163
  90. 00:42:16.825                             : en:00:42:16.825
  91. 00:44:26.330                             : en:00:44:26.330
  92. 00:46:35.209                             : en:00:46:35.209
  93. 00:48:53.347                             : en:00:48:53.347
  94. 00:51:43.183                             : en:00:51:43.183
  95. 00:53:01.178                             : en:00:53:01.178
  96. 00:56:44.442                             : en:00:56:44.442
  97. 00:58:32.550                             : en:00:58:32.550
  98. 01:02:00.758                             : en:01:02:00.758
  99. 01:04:19.730                             : en:01:04:19.730
  100. 01:06:25.481                             : en:01:06:25.481
  101. 01:10:13.417                             : en:01:10:13.417
  102. 01:14:53.989                             : en:01:14:53.989
  103. 01:17:28.852                             : en:01:17:28.852
  104. 01:21:11.199                             : en:01:21:11.199
  105. 01:25:45.682                             : en:01:25:45.682
  106. 01:30:06.484                             : en:01:30:06.484
  107. 01:32:53.484                             : en:01:32:53.484
  108. 01:35:54.331                             : en:01:35:54.331
  109. 01:38:15.097                             : en:01:38:15.097
  110. 01:43:20.527                             : en:01:43:20.527
  111. 01:46:26.588                             : en:01:46:26.588
复制代码

银河街道 Galaxy.Turnpike.2015.JAPANESE.1080p.BluRay.x264.DTS-iKiW 8.50GB-2.png 银河街道 Galaxy.Turnpike.2015.JAPANESE.1080p.BluRay.x264.DTS-iKiW 8.50GB-3.png 银河街道 Galaxy.Turnpike.2015.JAPANESE.1080p.BluRay.x264.DTS-iKiW 8.50GB-4.png






回复

使用道具 举报

蓝光币
1642
发表于 2020-2-1 12:01:39 | 显示全部楼层
楼主发贴辛苦了,谢谢楼主分享!我觉得蓝光电影网是注册对了!
回复 支持 反对

使用道具 举报

懒得打字嘛,点击右侧快捷回复 【右侧内容,后台自定义】
您需要登录后才可以回帖 登录 | 立即加入

本版积分规则

Archiver|小黑屋| 蓝光电影网 |网站地图

Copyright © 2021 Comsenz Inc. Powered by 蓝光电影网

蓝光电影网

本站内容由用户自主分享和转载自互联网,转载目的在于传递更多信息,并不代表本网赞同其观点和对其真实性负责。

如有侵权、违反国家法律政策行为,请联系我们,我们会第一时间及时清除和处理!

举报反馈邮箱:[email protected]

快速回复 返回顶部 返回列表