找回密码

蓝光电影网

查看: 305|回复: 3

[剧情] 在远处永远守候着你 Far.Away.So.Close.2013.JAPANESE.1080p.BluRay.x264.DTS-iKiW 8.52GB

[复制链接]
蓝光币
886
发表于 2020-2-1 00:35:14 | 显示全部楼层 |阅读模式
在远处永久等待着你 Far.Away.So.Close.2013.JAPANESE.1080p.BluRay.x264.DTS-iKiW 8.52GB-1.png

译  名 在远处永久等待着你
片  名 遠くでずっとそばに いる
年  代 2013
产  地 日本
类  别 剧情
语  言 日语
上映日期 2013-06-08(日本)
IMDb评分  6.6/10 from 40 users
IMDb链接  https://www.imdb.com/title/tt2393730
豆瓣评分 6.6/10 from 257 users
豆瓣链接 https://movie.douban.com/subject/22993097/
片  长 108分钟
导  演 长泽雅彦 Masahiko Nagasawa
编  剧 狗饲恭子 Kyoko Inukai
主  演 仓科加奈 Kana Kurashina
       中野裕太 Yuta Nakano
       伽奈 Kana
       清水久留巳
       德井义实 Yoshimi Tokui
       六角精儿 Seiji Rokkaku
       冈田奈奈 Nana Okada


标  签 日本 | 日本电影 | 岩井俊二 | 日影 | 长泽雅彦 | 仓科加奈 | 2013 | 剧情

简  介  

  似乎没有任何征象的一天,27岁的志村朔美(仓科加奈 饰)忽然遭受严重车祸。当她再度醒来时,发觉自己丧失了曩昔十年的记忆。此时的她只记得17岁那年12月之前的事。前男友细见良彦(中野裕太 饰)的到来让她满心欢乐,尝试着改变自己性此外高中同学大岛薰(伽奈 饰)也受朔美母亲之托来照顾她。家庭重组,昔时美术部的男孩归天,完全不熟悉的女子恶意诅咒。十年的空缺,让朔美兴奋之余手足无措。在良彦和薰的陪伴下,她成心识地寻觅失落的记忆,关于爱,关于恨,关于悲伤与失望,有如海水退潮后沙滩上的贝壳,渐次显现……
  本片按照狗饲恭子的原作改编,岩井俊二担任配乐。
  1. Video
  2. ID                                       : 1
  3. Format                                   : AVC
  4. Format/Info                              : Advanced Video Codec
  5. Format profile                           : [email protected]
  6. Format settings                          : CABAC / 5 Ref Frames
  7. Format settings, CABAC                   : Yes
  8. Format settings, Reference frames        : 5 frames
  9. Codec ID                                 : V_MPEG4/ISO/AVC
  10. Duration                                 : 1 h 48 min
  11. Bit rate                                 : 9 710 kb/s
  12. Width                                    : 1 920 pixels
  13. Height                                   : 804 pixels
  14. Display aspect ratio                     : 2.40:1
  15. Frame rate mode                          : Constant
  16. Frame rate                               : 23.976 (24000/1001) FPS
  17. Color space                              : YUV
  18. Chroma subsampling                       : 4:2:0
  19. Bit depth                                : 8 bits
  20. Scan type                                : Progressive
  21. Bits/(Pixel*Frame)                       : 0.262
  22. Stream size                              : 7.33 GiB (86%)
  23. Writing library                          : x264 core 129 r2245+704+36 8e61944 tMod+MixAQ [[email protected]:2:0 X86_64]
  24. Encoding settings                        : cabac=1 / ref=5 / deblock=1:-3:-3 / analyse=0x3:0x133 / me=umh / subme=11 / psy=1 / fade_compensate=0.00 / psy_rd=1.05:0.10 / mixed_ref=1 / me_range=64 / chroma_me=1 / trellis=2 / 8x8dct=1 / cqm=0 / deadzone=21,11 / fast_pskip=0 / chroma_qp_offset=-3 / threads=18 / lookahead_threads=3 / sliced_threads=0 / nr=0 / decimate=0 / interlaced=0 / bluray_compat=0 / constrained_intra=0 / fgo=0 / bframes=10 / b_pyramid=2 / b_adapt=2 / b_bias=0 / direct=3 / weightb=1 / open_gop=0 / weightp=2 / keyint=250 / keyint_min=23 / scenecut=40 / intra_refresh=0 / rc=2pass / mbtree=0 / bitrate=9710 / ratetol=1.0 / qcomp=0.70 / qpmin=0 / qpmax=69 / qpstep=4 / cplxblur=20.0 / qblur=0.5 / ip_ratio=1.40 / pb_ratio=1.30 / aq=1 / aq-strength=0.85 / aq-sensitivity=10.00 / aq-ifactor=1.00 / aq-pfactor=1.00 / aq-bfactor=1.00 / aq2=0
  25. Language                                 : Japanese
  26. Default                                  : Yes
  27. Forced                                   : No

  28. Audio
  29. ID                                       : 2
  30. Format                                   : DTS
  31. Format/Info                              : Digital Theater Systems
  32. Codec ID                                 : A_DTS
  33. Duration                                 : 1 h 48 min
  34. Bit rate mode                            : Constant
  35. Bit rate                                 : 1 509 kb/s
  36. Channel(s)                               : 6 channels
  37. Channel layout                           : C L R Ls Rs LFE
  38. Sampling rate                            : 48.0 kHz
  39. Frame rate                               : 93.750 FPS (512 SPF)
  40. Bit depth                                : 16 bits
  41. Compression mode                         : Lossy
  42. Stream size                              : 1.14 GiB (13%)
  43. Language                                 : Japanese
  44. Default                                  : Yes
  45. Forced                                   : No

  46. Text #1
  47. ID                                       : 3
  48. Format                                   : UTF-8
  49. Codec ID                                 : S_TEXT/UTF8
  50. Codec ID/Info                            : UTF-8 Plain Text
  51. Duration                                 : 1 h 39 min
  52. Bit rate                                 : 32 b/s
  53. Count of elements                        : 933
  54. Stream size                              : 23.6 KiB (0%)
  55. Language                                 : English
  56. Default                                  : Yes
  57. Forced                                   : No

  58. Text #2
  59. ID                                       : 4
  60. Format                                   : ASS
  61. Codec ID                                 : S_TEXT/ASS
  62. Codec ID/Info                            : Advanced Sub Station Alpha
  63. Duration                                 : 1 h 46 min
  64. Bit rate                                 : 10.9 kb/s
  65. Count of elements                        : 9935
  66. Compression mode                         : Lossless
  67. Stream size                              : 8.32 MiB (0%)
  68. Title                                    : Simplified
  69. Language                                 : Chinese
  70. Default                                  : No
  71. Forced                                   : No

  72. Text #3
  73. ID                                       : 5
  74. Format                                   : ASS
  75. Codec ID                                 : S_TEXT/ASS
  76. Codec ID/Info                            : Advanced Sub Station Alpha
  77. Duration                                 : 1 h 46 min
  78. Bit rate                                 : 10.9 kb/s
  79. Count of elements                        : 9935
  80. Compression mode                         : Lossless
  81. Stream size                              : 8.32 MiB (0%)
  82. Title                                    : Traditional
  83. Language                                 : Chinese
  84. Default                                  : No
  85. Forced                                   : No

  86. Menu
  87. 00:00:00.000                             : en:00:00:00.000
  88. 00:06:27.553                             : en:00:06:27.553
  89. 00:14:55.644                             : en:00:14:55.644
  90. 00:20:35.025                             : en:00:20:35.025
  91. 00:24:35.474                             : en:00:24:35.474
  92. 00:31:07.490                             : en:00:31:07.490
  93. 00:40:58.956                             : en:00:40:58.956
  94. 00:48:04.006                             : en:00:48:04.006
  95. 00:58:16.993                             : en:00:58:16.993
  96. 01:07:03.853                             : en:01:07:03.853
  97. 01:19:23.508                             : en:01:19:23.508
  98. 01:25:08.728                             : en:01:25:08.728
  99. 01:33:57.506                             : en:01:33:57.506
  100. 01:42:41.363                             : en:01:42:41.363
  101. 01:48:06.479                             : en:01:48:06.479
复制代码

在远处永久等待着你 Far.Away.So.Close.2013.JAPANESE.1080p.BluRay.x264.DTS-iKiW 8.52GB-2.png 在远处永久等待着你 Far.Away.So.Close.2013.JAPANESE.1080p.BluRay.x264.DTS-iKiW 8.52GB-3.png 在远处永久等待着你 Far.Away.So.Close.2013.JAPANESE.1080p.BluRay.x264.DTS-iKiW 8.52GB-4.png






回复

使用道具 举报

蓝光币
552
发表于 2020-2-1 10:09:40 | 显示全部楼层

楼主,大恩不言谢了!蓝光电影网是最棒的!
回复 支持 反对

使用道具 举报

懒得打字嘛,点击右侧快捷回复 【右侧内容,后台自定义】
您需要登录后才可以回帖 登录 | 立即加入

本版积分规则

Archiver|小黑屋| 蓝光电影网 |网站地图

Copyright © 2021 Comsenz Inc. Powered by 蓝光电影网

蓝光电影网

本站内容由用户自主分享和转载自互联网,转载目的在于传递更多信息,并不代表本网赞同其观点和对其真实性负责。

如有侵权、违反国家法律政策行为,请联系我们,我们会第一时间及时清除和处理!

举报反馈邮箱:[email protected]

快速回复 返回顶部 返回列表