找回密码

蓝光电影网

查看: 632|回复: 2

[喜剧] 那个女孩的俘虏/我是她的俘虏 Anoko.no.Toriko.2018.JAPANESE.1080p.BluRay.x264.DTS-iKiW 8.50GB

[复制链接]
蓝光币
886
发表于 2020-2-1 00:39:37 | 显示全部楼层 |阅读模式
阿谁女孩的俘虏/我是她的俘虏 Anoko.no.Toriko.2018.JAPANESE.1080p.BluRay.x264.DTS-iKiW 8.50GB-1.png

译  名 阿谁女孩的俘虏 / 我是她的,俘虏
片  名 あのコの、トリコ。
年  代 2018
产  地 日本
类  别 笑剧
语  言 日语
上映日期 2018-10-05(日本)
IMDb评分  6.3/10 from 95 users
IMDb链接  https://www.imdb.com/title/tt7134522
豆瓣评分 5.3/10 from 2685 users
豆瓣链接 https://movie.douban.com/subject/27085691/
片  长 99分钟
导  演 宫胁亮 Ry? Miyawaki
编  剧 浅野妙子 Taeko Asano
主  演 吉泽亮 Yoshizawa Ryo
       新木优子 Yuko Araki
       杉野遥亮 Yosuke Sugino


标  签 日本 | 恋爱 | 日本电影 | 吉沢亮 | 新木优子 | 漫画改编 | 青春 | 电影

简  介  

  小时辰约定要一路成为艺人的赖、昂、雫三人,而赖却违反了约定,阔别10年回到这个城市的赖与雫重逢,而雫此时已经是一位新人偶像。新人偶像X人气演员X眼镜君,非同平常的青梅竹马三角关系恋爱故事收场。
  1. Video
  2. ID                                       : 1
  3. Format                                   : AVC
  4. Format/Info                              : Advanced Video Codec
  5. Format profile                           : [email protected]
  6. Format settings                          : CABAC / 4 Ref Frames
  7. Format settings, CABAC                   : Yes
  8. Format settings, Reference frames        : 4 frames
  9. Codec ID                                 : V_MPEG4/ISO/AVC
  10. Duration                                 : 1 h 39 min
  11. Bit rate                                 : 10.7 Mb/s
  12. Width                                    : 1 920 pixels
  13. Height                                   : 1 016 pixels
  14. Display aspect ratio                     : 1.890
  15. Frame rate mode                          : Constant
  16. Frame rate                               : 23.976 (24000/1001) FPS
  17. Color space                              : YUV
  18. Chroma subsampling                       : 4:2:0
  19. Bit depth                                : 8 bits
  20. Scan type                                : Progressive
  21. Bits/(Pixel*Frame)                       : 0.230
  22. Stream size                              : 7.45 GiB (88%)
  23. Writing library                          : x264 core 129 r2245+704+36 8e61944 tMod+MixAQ [[email protected]:2:0 X86_64]
  24. Encoding settings                        : cabac=1 / ref=4 / deblock=1:-3:-3 / analyse=0x3:0x133 / me=umh / subme=11 / psy=1 / fade_compensate=0.00 / psy_rd=1.05:0.10 / mixed_ref=1 / me_range=64 / chroma_me=1 / trellis=2 / 8x8dct=1 / cqm=0 / deadzone=21,11 / fast_pskip=0 / chroma_qp_offset=-3 / threads=18 / lookahead_threads=3 / sliced_threads=0 / nr=0 / decimate=0 / interlaced=0 / bluray_compat=0 / constrained_intra=0 / fgo=0 / bframes=10 / b_pyramid=2 / b_adapt=2 / b_bias=0 / direct=3 / weightb=1 / open_gop=0 / weightp=2 / keyint=250 / keyint_min=23 / scenecut=40 / intra_refresh=0 / rc=2pass / mbtree=0 / bitrate=10738 / ratetol=1.0 / qcomp=0.70 / qpmin=0 / qpmax=69 / qpstep=4 / cplxblur=20.0 / qblur=0.5 / ip_ratio=1.40 / pb_ratio=1.30 / aq=1 / aq-strength=0.90 / aq-sensitivity=10.00 / aq-ifactor=1.00 / aq-pfactor=1.00 / aq-bfactor=1.00 / aq2=0
  25. Language                                 : Japanese
  26. Default                                  : Yes
  27. Forced                                   : No

  28. Audio
  29. ID                                       : 2
  30. Format                                   : DTS
  31. Format/Info                              : Digital Theater Systems
  32. Codec ID                                 : A_DTS
  33. Duration                                 : 1 h 39 min
  34. Bit rate mode                            : Constant
  35. Bit rate                                 : 1 509 kb/s
  36. Channel(s)                               : 6 channels
  37. Channel layout                           : C L R Ls Rs LFE
  38. Sampling rate                            : 48.0 kHz
  39. Frame rate                               : 93.750 FPS (512 SPF)
  40. Bit depth                                : 24 bits
  41. Compression mode                         : Lossy
  42. Stream size                              : 1.05 GiB (12%)
  43. Language                                 : Japanese
  44. Default                                  : Yes
  45. Forced                                   : No

  46. Text #1
  47. ID                                       : 3
  48. Format                                   : UTF-8
  49. Codec ID                                 : S_TEXT/UTF8
  50. Codec ID/Info                            : UTF-8 Plain Text
  51. Duration                                 : 1 h 34 min
  52. Bit rate                                 : 43 b/s
  53. Count of elements                        : 1089
  54. Stream size                              : 30.1 KiB (0%)
  55. Language                                 : English
  56. Default                                  : Yes
  57. Forced                                   : No

  58. Text #2
  59. ID                                       : 4
  60. Format                                   : UTF-8
  61. Codec ID                                 : S_TEXT/UTF8
  62. Codec ID/Info                            : UTF-8 Plain Text
  63. Duration                                 : 1 h 38 min
  64. Bit rate                                 : 34 b/s
  65. Count of elements                        : 955
  66. Stream size                              : 25.1 KiB (0%)
  67. Title                                    : Simplified
  68. Language                                 : Chinese
  69. Default                                  : No
  70. Forced                                   : No

  71. Text #3
  72. ID                                       : 5
  73. Format                                   : UTF-8
  74. Codec ID                                 : S_TEXT/UTF8
  75. Codec ID/Info                            : UTF-8 Plain Text
  76. Duration                                 : 1 h 38 min
  77. Bit rate                                 : 34 b/s
  78. Count of elements                        : 955
  79. Stream size                              : 25.1 KiB (0%)
  80. Title                                    : Traditional
  81. Language                                 : Chinese
  82. Default                                  : No
  83. Forced                                   : No

  84. Menu
  85. 00:00:00.000                             : en:第 01 章
  86. 00:08:23.461                             : en:第 02 章
  87. 00:15:07.990                             : en:第 03 章
  88. 00:25:36.326                             : en:第 04 章
  89. 00:37:15.274                             : en:第 05 章
  90. 00:48:35.621                             : en:第 06 章
  91. 00:57:30.530                             : en:第 07 章
  92. 01:09:44.430                             : en:第 08 章
  93. 01:13:35.035                             : en:第 09 章
  94. 01:19:43.945                             : en:第 10 章
  95. 01:27:27.325                             : en:第 11 章
  96. 01:35:23.968                             : en:第 12 章
复制代码

阿谁女孩的俘虏/我是她的俘虏 Anoko.no.Toriko.2018.JAPANESE.1080p.BluRay.x264.DTS-iKiW 8.50GB-2.png 阿谁女孩的俘虏/我是她的俘虏 Anoko.no.Toriko.2018.JAPANESE.1080p.BluRay.x264.DTS-iKiW 8.50GB-3.png 阿谁女孩的俘虏/我是她的俘虏 Anoko.no.Toriko.2018.JAPANESE.1080p.BluRay.x264.DTS-iKiW 8.50GB-4.png






回复

使用道具 举报

蓝光币
860
发表于 2020-2-1 09:11:15 | 显示全部楼层
谢谢楼主无私分享。
回复 支持 反对

使用道具 举报

蓝光币
552
发表于 2020-2-1 10:03:20 | 显示全部楼层

这个帖子不回对不起自己!我想我是一天也不能离开蓝光电影网
回复 支持 反对

使用道具 举报

懒得打字嘛,点击右侧快捷回复 【右侧内容,后台自定义】
您需要登录后才可以回帖 登录 | 立即加入

本版积分规则

Archiver|小黑屋| 蓝光电影网 |网站地图

Copyright © 2021 Comsenz Inc. Powered by 蓝光电影网

蓝光电影网

本站内容由用户自主分享和转载自互联网,转载目的在于传递更多信息,并不代表本网赞同其观点和对其真实性负责。

如有侵权、违反国家法律政策行为,请联系我们,我们会第一时间及时清除和处理!

举报反馈邮箱:[email protected]

快速回复 返回顶部 返回列表