找回密码

蓝光电影网

查看: 670|回复: 1

[纪录] 蓝鸟咖啡馆 Bluebird.2019.1080p.BluRay.x264-CADAVER 5.46GB

[复制链接]
蓝光币
1020
发表于 2020-2-1 00:41:29 | 显示全部楼层 |阅读模式
蓝鸟咖啡馆 Bluebird.2019.1080p.BluRay.x264-CADAVER 5.46GB-1.png

译  名 蓝鸟咖啡馆
片  名 Bluebird
年  代 2019
产  地 美国
类  别 记载片 / 音乐
语  言 英语
上映日期 2019(美国)
IMDb评分  8.7/10 from 35 users
IMDb链接  https://www.imdb.com/title/tt9602666
豆瓣评分 0/10 from 0 users
豆瓣链接 https://movie.douban.com/subject/33218394/
片  长 83分钟
导  演 Brian A. Loschiavo
主  演 康妮·布里登 Connie Britton
       盖斯·布洛克斯 Garth Brooks
       Steve Earle
       查尔斯·伊斯滕 Charles Esten
       Vince Gill
       菲丝·希尔 Faith Hill
       Jason Isbell
       Maren Morris
       Kacey Musgraves
       泰勒·斯威夫特 Taylor Swift
       Pam Tillis
       Trisha Yearwood


标  签 记载片 | 音乐 | 2019 | 美国电影 | 美国 | 列传

简  介  

  座落在村落音乐之都纳什维尔一个不起眼的购物中心里的蓝鸟咖啡馆,是孕育了多位格莱美获奖者的摇篮。昔时年仅十四岁的泰勒·斯威夫特正是由于在这里演唱,才有缘被唱片公司老板挖掘。时隔多年,泰勒·斯威夫特重回蓝鸟,在这个当初让她的胡想落地发芽的咖啡馆里,演唱了一整首歌,热情的唱腔里布满了感概和记忆,也成了蓝鸟咖啡馆最怪异的布景音乐。记载片除了报告了在蓝鸟咖啡馆里,一位位音乐创作人被星探挖掘,一鸣惊人的故事,同时也记录了这家咖啡馆在这十几年内的一切变迁。这是一封送给一切村落音乐爱好者的情书。
  1. Video
  2. ID                                       : 1
  3. Format                                   : AVC
  4. Format/Info                              : Advanced Video Codec
  5. Format profile                           : [email protected]
  6. Format settings                          : CABAC / 5 Ref Frames
  7. Format settings, CABAC                   : Yes
  8. Format settings, Reference frames        : 5 frames
  9. Codec ID                                 : V_MPEG4/ISO/AVC
  10. Duration                                 : 1 h 22 min
  11. Bit rate                                 : 9 130 kb/s
  12. Width                                    : 1 920 pixels
  13. Height                                   : 808 pixels
  14. Display aspect ratio                     : 2.40:1
  15. Frame rate mode                          : Constant
  16. Frame rate                               : 23.976 (24000/1001) FPS
  17. Color space                              : YUV
  18. Chroma subsampling                       : 4:2:0
  19. Bit depth                                : 8 bits
  20. Scan type                                : Progressive
  21. Bits/(Pixel*Frame)                       : 0.245
  22. Stream size                              : 5.28 GiB (97%)
  23. Writing library                          : x264 core 159 r2991 1771b55
  24. Encoding settings                        : cabac=1 / ref=5 / deblock=1:-3:-3 / analyse=0x3:0x133 / me=umh / subme=9 / psy=1 / psy_rd=1.00:0.00 / mixed_ref=1 / me_range=24 / chroma_me=1 / trellis=1 / 8x8dct=1 / cqm=0 / deadzone=21,11 / fast_pskip=0 / chroma_qp_offset=-2 / threads=6 / lookahead_threads=1 / sliced_threads=0 / nr=0 / decimate=1 / interlaced=0 / bluray_compat=0 / constrained_intra=0 / bframes=8 / b_pyramid=2 / b_adapt=2 / b_bias=0 / direct=3 / weightb=1 / open_gop=0 / weightp=2 / keyint=250 / keyint_min=23 / scenecut=40 / intra_refresh=0 / rc_lookahead=60 / rc=2pass / mbtree=1 / bitrate=9130 / ratetol=1.0 / qcomp=0.60 / qpmin=0 / qpmax=69 / qpstep=4 / cplxblur=20.0 / qblur=0.5 / vbv_maxrate=62500 / vbv_bufsize=78125 / nal_hrd=none / filler=0 / ip_ratio=1.40 / aq=1:1.00
  25. Default                                  : Yes
  26. Forced                                   : No

  27. Audio
  28. ID                                       : 2
  29. Format                                   : AC-3
  30. Format/Info                              : Audio Coding 3
  31. Commercial name                          : Dolby Digital
  32. Codec ID                                 : A_AC3
  33. Duration                                 : 1 h 22 min
  34. Bit rate mode                            : Constant
  35. Bit rate                                 : 320 kb/s
  36. Channel(s)                               : 6 channels
  37. Channel layout                           : L R C LFE Ls Rs
  38. Sampling rate                            : 48.0 kHz
  39. Frame rate                               : 31.250 FPS (1536 SPF)
  40. Bit depth                                : 16 bits
  41. Compression mode                         : Lossy
  42. Stream size                              : 189 MiB (3%)
  43. Language                                 : English
  44. Service kind                             : Complete Main
  45. Default                                  : Yes
  46. Forced                                   : No

  47. Menu
  48. 00:00:00.000                             : en:Chapter 01
  49. 00:05:22.823                             : en:Chapter 02
  50. 00:11:09.669                             : en:Chapter 03
  51. 00:16:12.972                             : en:Chapter 04
  52. 00:22:18.838                             : en:Chapter 05
  53. 00:28:09.688                             : en:Chapter 06
  54. 00:32:21.940                             : en:Chapter 07
  55. 00:36:29.688                             : en:Chapter 08
  56. 00:42:15.032                             : en:Chapter 09
  57. 00:49:42.480                             : en:Chapter 10
  58. 00:56:26.884                             : en:Chapter 11
  59. 01:03:41.818                             : en:Chapter 12
  60. 01:10:26.222                             : en:Chapter 13
  61. 01:14:53.990                             : en:Chapter 14
  62. 01:18:39.215                             : en:Chapter 15
复制代码

蓝鸟咖啡馆 Bluebird.2019.1080p.BluRay.x264-CADAVER 5.46GB-2.png






回复

使用道具 举报

懒得打字嘛,点击右侧快捷回复 【右侧内容,后台自定义】
您需要登录后才可以回帖 登录 | 立即加入

本版积分规则

Archiver|小黑屋| 蓝光电影网 |网站地图

Copyright © 2021 Comsenz Inc. Powered by 蓝光电影网

蓝光电影网

本站内容由用户自主分享和转载自互联网,转载目的在于传递更多信息,并不代表本网赞同其观点和对其真实性负责。

如有侵权、违反国家法律政策行为,请联系我们,我们会第一时间及时清除和处理!

举报反馈邮箱:[email protected]

快速回复 返回顶部 返回列表