找回密码

蓝光电影网

查看: 281|回复: 0

[喜剧] 去年圣诞/去年圣诞节 Last.Christmas.2019.720p.BluRay.x264-GUACAMOLE 4.37GB

[复制链接]
蓝光币
886
发表于 2020-2-1 00:43:26 | 显示全部楼层 |阅读模式
客岁圣诞/客岁圣诞节 Last.Christmas.2019.720p.BluRay.x264-GUACAMOLE 4.37GB-1.png

译  名 客岁圣诞 / 客岁圣诞节(台) / 旧年圣诞好恋嚟(港) / 爱在圣诞
片  名 Last Christmas
年  代 2019
产  地 英国 / 美国
类  别 笑剧 / 恋爱
语  言 英语
上映日期 2019-11-08(美国)
IMDb评分  6.5/10 from 22778 users
IMDb链接  https://www.imdb.com/title/tt8623904
豆瓣评分 6.4/10 from 2204 users
豆瓣链接 https://movie.douban.com/subject/30259221/
片  长 102分钟
导  演 保罗·费格 Paul Feig
编  剧 艾玛·汤普森 Emma Thompson / 布里尼·金明斯 Bryony Kimmings / 格雷·怀斯 Greg Wise
主  演 艾米莉亚·克拉克 Emilia Clarke
       亨利·戈尔丁 Henry Golding
       杨紫琼 Michelle Yeoh
       艾玛·汤普森 Emma Thompson
       丽贝卡·鲁特 Rebecca Root
       莉迪亚·伦纳德 Lydia Leonard
       海伦娜·福尔摩斯 Helena Holmes
       纳西尔·贾玛 Nasir Jama
       彼得·米金特 Peter Mygind
       大卫·穆梅尼 David Mumeni
       里图·阿亚 Ritu Arya
       卡罗尔·斯蒂尔 Karol Steele
       帕蒂·卢波恩 Patti LuPone


标  签 恋爱 | 英国 | 笑剧 | 圣诞 | 温情 | 2019 | 美国 | Christmas

简  介  

  一事无成的凯特(艾米莉亚·克拉克 Emilia Clarke 饰)在伦敦浑浑噩噩地过着日子,她做出的连续串糟糕决议致使恶运总是陪伴着鞋子上发出的铃声跬步不离地跟从着她,她只能打扮成圣诞老人的小精灵,在一间全年无休的圣诞饰品店当伙计。把稳地善良的汤姆(亨利·戈尔丁 Henry Golding 饰)闯入了凯特的生活,帮助她克服了很多障碍与难关,一切都似乎美好得有点不实在。伦敦在圣诞佳节时代转酿成一座童话般的梦幻王国,这两个看似八棍子撂不着的人能否结成良缘?偶然辰,你得天真烂漫、凝听自己心里的声音……而且要具有强大的信心。
  1. Video
  2. ID                                       : 1
  3. Format                                   : AVC
  4. Format/Info                              : Advanced Video Codec
  5. Format profile                           : [email protected]
  6. Format settings                          : CABAC / 5 Ref Frames
  7. Format settings, CABAC                   : Yes
  8. Format settings, Reference frames        : 5 frames
  9. Codec ID                                 : V_MPEG4/ISO/AVC
  10. Duration                                 : 1 h 42 min
  11. Bit rate                                 : 4 557 kb/s
  12. Width                                    : 1 280 pixels
  13. Height                                   : 640 pixels
  14. Display aspect ratio                     : 2.000
  15. Frame rate mode                          : Constant
  16. Frame rate                               : 23.976 (24000/1001) FPS
  17. Color space                              : YUV
  18. Chroma subsampling                       : 4:2:0
  19. Bit depth                                : 8 bits
  20. Scan type                                : Progressive
  21. Bits/(Pixel*Frame)                       : 0.232
  22. Stream size                              : 3.27 GiB (75%)
  23. Writing library                          : x264 core 159 r2991 1771b55
  24. Encoding settings                        : cabac=1 / ref=5 / deblock=1:0:0 / analyse=0x3:0x113 / me=umh / subme=8 / psy=1 / psy_rd=1.00:0.00 / mixed_ref=1 / me_range=16 / chroma_me=1 / trellis=2 / 8x8dct=1 / cqm=0 / deadzone=21,11 / fast_pskip=0 / chroma_qp_offset=-2 / threads=20 / lookahead_threads=3 / sliced_threads=0 / nr=0 / decimate=1 / interlaced=0 / bluray_compat=0 / constrained_intra=0 / bframes=3 / b_pyramid=2 / b_adapt=1 / b_bias=0 / direct=1 / weightb=1 / open_gop=0 / weightp=2 / keyint=250 / keyint_min=23 / scenecut=40 / intra_refresh=0 / rc_lookahead=50 / rc=2pass / mbtree=1 / bitrate=4557 / ratetol=1.0 / qcomp=0.60 / qpmin=0 / qpmax=69 / qpstep=4 / cplxblur=20.0 / qblur=0.5 / ip_ratio=1.40 / aq=1:1.00
  25. Default                                  : Yes
  26. Forced                                   : No

  27. Audio
  28. ID                                       : 2
  29. Format                                   : DTS
  30. Format/Info                              : Digital Theater Systems
  31. Codec ID                                 : A_DTS
  32. Duration                                 : 1 h 42 min
  33. Bit rate mode                            : Constant
  34. Bit rate                                 : 1 509 kb/s
  35. Channel(s)                               : 6 channels
  36. Channel layout                           : C L R Ls Rs LFE
  37. Sampling rate                            : 48.0 kHz
  38. Frame rate                               : 93.750 FPS (512 SPF)
  39. Bit depth                                : 24 bits
  40. Compression mode                         : Lossy
  41. Stream size                              : 1.08 GiB (25%)
  42. Language                                 : English
  43. Default                                  : No
  44. Forced                                   : No

  45. Menu
  46. 00:00:00.000                             : en:00:00:00.000
  47. 00:05:48.390                             : en:00:05:48.390
  48. 00:10:26.960                             : en:00:10:26.960
  49. 00:16:47.340                             : en:00:16:47.340
  50. 00:23:20.941                             : en:00:23:20.941
  51. 00:26:15.657                             : en:00:26:15.657
  52. 00:29:39.236                             : en:00:29:39.236
  53. 00:36:00.367                             : en:00:36:00.367
  54. 00:40:51.991                             : en:00:40:51.991
  55. 00:45:31.312                             : en:00:45:31.312
  56. 00:49:55.618                             : en:00:49:55.618
  57. 00:52:26.769                             : en:00:52:26.769
  58. 00:58:10.821                             : en:00:58:10.821
  59. 01:05:48.444                             : en:01:05:48.444
  60. 01:10:31.185                             : en:01:10:31.185
  61. 01:13:50.593                             : en:01:13:50.593
  62. 01:19:31.225                             : en:01:19:31.225
  63. 01:24:23.600                             : en:01:24:23.600
  64. 01:30:42.812                             : en:01:30:42.812
  65. 01:37:41.731                             : en:01:37:41.731
复制代码

客岁圣诞/客岁圣诞节 Last.Christmas.2019.720p.BluRay.x264-GUACAMOLE 4.37GB-2.png






回复

使用道具 举报

懒得打字嘛,点击右侧快捷回复 【右侧内容,后台自定义】
您需要登录后才可以回帖 登录 | 立即加入

本版积分规则

Archiver|小黑屋| 蓝光电影网 |网站地图

Copyright © 2021 Comsenz Inc. Powered by 蓝光电影网

蓝光电影网

本站内容由用户自主分享和转载自互联网,转载目的在于传递更多信息,并不代表本网赞同其观点和对其真实性负责。

如有侵权、违反国家法律政策行为,请联系我们,我们会第一时间及时清除和处理!

举报反馈邮箱:[email protected]

快速回复 返回顶部 返回列表