找回密码

蓝光电影网

查看: 874|回复: 4

[恐怖] 小丑/惊魂小丑屋 Clown.2019.UNCUT.720p.BluRay.x264-GETiT 3.28GB

[复制链接]
蓝光币
886
发表于 2020-2-1 00:52:43 | 显示全部楼层 |阅读模式
小丑/惊魂小丑屋 Clown.2019.UNCUT.720p.BluRay.x264-GETiT 3.28GB-1.png

译  名 小丑 / 惊魂小丑屋
片  名 Clown
年  代 2019
产  地 美国
类  别 可骇
语  言 英语
上映日期 2019-08-29(美国)
IMDb评分  2.8/10 from 83 users
IMDb链接  https://www.imdb.com/title/tt10380066
豆瓣评分 2.6/10 from 945 users
豆瓣链接 https://movie.douban.com/subject/34809105/
导  演 Eric Forsberg
编  剧 Eric Forsberg
主  演 Kasia Szarek
       Micavrie Amaia
       Drew Hale
       Adam Elshar
       Marqus Bobesich
       Audrey Gibbs
       Camille Wormser
       Sam Lazarus
       Dave Klec
       Taylor Watson Seupel
       Christopher Shone
       James Jovanovich
       Nicholas Shone
       Joyce Tatler
       Tayvion Power


标  签 烂片 | 盗版小丑 | 渣滓 | 差 | 可骇 | 美国 | 可骇惊悚悬疑重口血腥 | 2019

简  介  

  A group of teens fights for their lives as they find themselves trapped in a fun-house, stalked by a killer clown who won\'t rest until every last one of them is dead.
  1. Video
  2. ID                                       : 1
  3. Format                                   : AVC
  4. Format/Info                              : Advanced Video Codec
  5. Format profile                           : [email protected]
  6. Format settings                          : CABAC / 5 Ref Frames
  7. Format settings, CABAC                   : Yes
  8. Format settings, Reference frames        : 5 frames
  9. Codec ID                                 : V_MPEG4/ISO/AVC
  10. Duration                                 : 1 h 27 min
  11. Bit rate                                 : 4 609 kb/s
  12. Width                                    : 1 280 pixels
  13. Height                                   : 536 pixels
  14. Display aspect ratio                     : 2.40:1
  15. Frame rate mode                          : Constant
  16. Frame rate                               : 23.976 (24000/1001) FPS
  17. Color space                              : YUV
  18. Chroma subsampling                       : 4:2:0
  19. Bit depth                                : 8 bits
  20. Scan type                                : Progressive
  21. Bits/(Pixel*Frame)                       : 0.280
  22. Stream size                              : 2.81 GiB (86%)
  23. Writing library                          : x264 core 158 r2988 7817004
  24. Encoding settings                        : cabac=1 / ref=5 / deblock=1:0:0 / analyse=0x3:0x133 / me=umh / subme=7 / psy=1 / psy_rd=1.00:0.00 / mixed_ref=1 / me_range=16 / chroma_me=1 / trellis=2 / 8x8dct=1 / cqm=0 / deadzone=21,11 / fast_pskip=0 / chroma_qp_offset=-2 / threads=16 / lookahead_threads=2 / sliced_threads=0 / nr=0 / decimate=1 / interlaced=0 / bluray_compat=0 / constrained_intra=0 / bframes=3 / b_pyramid=2 / b_adapt=1 / b_bias=0 / direct=3 / weightb=1 / open_gop=0 / weightp=2 / keyint=250 / keyint_min=23 / scenecut=40 / intra_refresh=0 / rc_lookahead=50 / rc=2pass / mbtree=1 / bitrate=4609 / ratetol=1.0 / qcomp=0.60 / qpmin=0 / qpmax=69 / qpstep=4 / cplxblur=20.0 / qblur=0.5 / ip_ratio=1.40 / aq=1:1.00
  25. Language                                 : English
  26. Default                                  : Yes
  27. Forced                                   : No

  28. Audio
  29. ID                                       : 2
  30. Format                                   : DTS
  31. Format/Info                              : Digital Theater Systems
  32. Codec ID                                 : A_DTS
  33. Duration                                 : 1 h 27 min
  34. Bit rate mode                            : Constant
  35. Bit rate                                 : 768 kb/s
  36. Channel(s)                               : 6 channels
  37. Channel layout                           : C L R Ls Rs LFE
  38. Sampling rate                            : 48.0 kHz
  39. Frame rate                               : 93.750 FPS (512 SPF)
  40. Bit depth                                : 24 bits
  41. Compression mode                         : Lossy
  42. Stream size                              : 479 MiB (14%)
  43. Title                                    : DTS
  44. Language                                 : English
  45. Default                                  : Yes
  46. Forced                                   : No

  47. Menu
  48. 00:00:00.000                             : en:00:00:00.000
  49. 00:10:49.232                             : en:00:10:49.232
  50. 00:20:43.159                             : en:00:20:43.159
  51. 00:31:37.479                             : en:00:31:37.479
  52. 00:44:15.695                             : en:00:44:15.695
  53. 00:56:48.947                             : en:00:56:48.947
  54. 01:08:28.980                             : en:01:08:28.980
  55. 01:16:29.418                             : en:01:16:29.418
  56. 01:22:24.565                             : en:01:22:24.565
复制代码

小丑/惊魂小丑屋 Clown.2019.UNCUT.720p.BluRay.x264-GETiT 3.28GB-2.png






回复

使用道具 举报

懒得打字嘛,点击右侧快捷回复 【右侧内容,后台自定义】
您需要登录后才可以回帖 登录 | 立即加入

本版积分规则

Archiver|小黑屋| 蓝光电影网 |网站地图

Copyright © 2021 Comsenz Inc. Powered by 蓝光电影网

蓝光电影网

本站内容由用户自主分享和转载自互联网,转载目的在于传递更多信息,并不代表本网赞同其观点和对其真实性负责。

如有侵权、违反国家法律政策行为,请联系我们,我们会第一时间及时清除和处理!

举报反馈邮箱:[email protected]

快速回复 返回顶部 返回列表