找回密码

蓝光电影网

查看: 738|回复: 4

[奇幻] 海王/人鱼哥 Aquaman.2018.UK.VERSiON.720p.BluRay.x264-ViRGO 6.56GB

[复制链接]
蓝光币
886
发表于 2020-2-1 13:46:37 | 显示全部楼层 |阅读模式
海王/人鱼哥 Aquaman.2018.UK.VERSiON.720p.BluRay.x264-ViRGO 6.56GB-1.png

译  名 海王 / 人鱼哥(豆友译名) / 水人 / 水行侠(港 / 台) / 潜水侠
片  名 Aquaman
年  代 2018
产  地 美国 / 澳大利亚
类  别 行动 / 奇异 / 冒险
语  言 英语 / 毛利语 / 意大利语 / 俄语
上映日期 2018-12-07(中国大陆) / 2018-12-21(美国)
IMDb评分  7.0/10 from 322258 users
IMDb链接  https://www.imdb.com/title/tt1477834
豆瓣评分 7.6/10 from 697940 users
豆瓣链接 https://movie.douban.com/subject/3878007/
片  长 143分钟
导  演 温子仁 James Wan
编  剧 大卫·莱斯利·约翰逊-麦戈德里克 David Leslie Johnson-McGoldrick / 威尔·比尔 Will Beall / 乔夫·琼斯 Geoff Johns / 温子仁 James Wan / 莫尔特·魏辛格 Mort Weisinger / 保罗·诺里斯 Paul Norris
主  演 杰森·莫玛 Jason Momoa
       艾梅柏·希尔德 Amber Heard
       威廉·达福 Willem Dafoe
       帕特里克·威尔森 Patrick Wilson
       妮可·基德曼 Nicole Kidman
       杜夫·龙格尔 Dolph Lundgren
       叶海亚·阿卜杜勒-迈丁 Yahya Abdul-Mateen II
       特穆拉·莫里森 Temuera Morrison
       林路迪 Ludi Lin
       迈克尔·比奇 Michael Beach
       兰道尔·朴 Randall Park
       格拉汉姆·麦克泰维什 Graham McTavish
       雷·沃纳尔 Leigh Whannell
       泰努伊·柯克伍德 Tainui Kirkwood
       塔穆尔·柯克伍德 Tamor Kirkwood
       丹泽尔·夸克 Denzel Quirke
       卡恩·古尔杜尔 Kaan Guldur
       奥蒂斯·丹吉 Otis Dhanji
       克考亚·克库毛诺 Kekoa Kekumano
       朱莉·安德鲁斯 Julie Andrews
       约翰·瑞斯-戴维斯 John Rhys-Davies
       杰曼·翰苏 Djimon Hounsou
       索菲亚·福雷斯特 Sophia Forrest
       娜塔莉亚姗福瑞 Natalia Safran
       杰克·安德鲁 Jack Andrew
       汉克·阿莫斯 Hank Amos
       帕特里克·考克斯 Patrick Cox
       罗伯特·朗斯特里特 Robert Longstreet
       德维卡·帕利赫 Devika Parikh
       梅布尔·塔莫内 Mabel Tamone
       文森特·B·拉戈斯 Vincent B. Gorce
       加布里埃拉·佩特科娃 Gabriella Petkova
       爱丽丝·兰斯伯里 Alice Lanesbury
       帕特里克·艾奇逊 Patrick Atchison
       约翰·盖蒂尔 John Gettier
       塔丽亚·杰德·霍尔特 Tahlia Jade Holt
       罗斯·克纳汉 Ross Kernahan
       布拉登·刘易斯 Braden Lewis
       萨尔瓦多·梅伦达 Salvatore Merenda
       山姆·莫纳汉 Sam Monaghan
       温妮·穆赞贝 Winnie Mzembe
       凯·潘塔诺 Kai Pantano
       安娜·帕奇 Anna Patch
       乔恩·奎斯蒂德 Jon Quested
       迪伦·斯图默 Dylan Stumer
       米奇·武尔夫 Mikey Wulff


标  签 DC | 超级豪杰 | 殊效 | 美国 | 奇异 | 行动 | 漫画改编 | 2018

简  介  

  很多年前,亚特兰蒂斯女王(妮可·基德曼 Nicole Kidman 饰)和人类相知相恋,配合孕育了恋爱的结晶——后来被陆地人称为海王的亚瑟·库瑞(杰森·莫玛 Jason Momoa 饰)。在长大的进程中,亚瑟接管海底导师维科(威廉·达福 Willem Dafoe 饰)的严苛练习,时辰渴望去探望母亲,但是作为混血的私生子这却是期望。与此同时,亚瑟的同母异父兄弟奥姆(帕特里克·威尔森 Patrick Wilson 饰)成为亚特兰蒂斯的国王,他不满陆地人类对大海的苛虐与净化,遂经营结合其他海底王国策动对陆地的周全战争。为了阻止他的野心,维科和奥姆的未婚妻湄拉(艾梅柏·希尔德 Amber Heard 饰)将亚瑟带到海底天下。
  宿命鞭策着亚瑟,去寻觅失落已久的三叉戟,建立一个加倍开通的海底王国……

获奖情况  

  第28届MTV电影奖(2019)
  MTV电影奖 最好吻戏(提名) 杰森·莫玛 / 艾梅柏·希尔德

  第21届美国打扮设想工会奖(2019)
  科幻/奇异题材电影最好打扮设想(提名) 凯姆·巴雷特

  第6届美国化装及发型设想工会奖(2019)
  电影类最好殊效化装(提名)

  第66届美国音效剪辑协会奖(2019)
  金卷轴奖 最好配乐剪辑(提名)

  第17届美国视觉结果协会奖(2019)
  最好真人电影CG布景(提名)
  最好电影虚拟摄影(提名)

  第5届豆瓣电影年度榜单(2018)
  评分最高的科幻/行动片(提名)

  第4届豆瓣电影年度榜单(2017)
  最值得期待的外语电影(提名)
  1. Video
  2. ID                                       : 1
  3. Format                                   : AVC
  4. Format/Info                              : Advanced Video Codec
  5. Format profile                           : [email protected]
  6. Format settings                          : CABAC / 5 Ref Frames
  7. Format settings, CABAC                   : Yes
  8. Format settings, Reference frames        : 5 frames
  9. Codec ID                                 : V_MPEG4/ISO/AVC
  10. Duration                                 : 2 h 23 min
  11. Bit rate                                 : 5 037 kb/s
  12. Width                                    : 1 280 pixels
  13. Height                                   : 720 pixels
  14. Display aspect ratio                     : 16:9
  15. Frame rate mode                          : Constant
  16. Frame rate                               : 23.976 (24000/1001) FPS
  17. Color space                              : YUV
  18. Chroma subsampling                       : 4:2:0
  19. Bit depth                                : 8 bits
  20. Scan type                                : Progressive
  21. Bits/(Pixel*Frame)                       : 0.228
  22. Stream size                              : 5.04 GiB (77%)
  23. Writing library                          : x264 core 159 r2991 1771b55
  24. Encoding settings                        : cabac=1 / ref=5 / deblock=1:0:0 / analyse=0x3:0x113 / me=umh / subme=7 / psy=1 / psy_rd=1.00:0.00 / mixed_ref=1 / me_range=16 / chroma_me=1 / trellis=1 / 8x8dct=1 / cqm=0 / deadzone=21,11 / fast_pskip=0 / chroma_qp_offset=-2 / threads=12 / lookahead_threads=2 / sliced_threads=0 / nr=0 / decimate=1 / interlaced=0 / bluray_compat=0 / constrained_intra=0 / bframes=3 / b_pyramid=2 / b_adapt=1 / b_bias=0 / direct=3 / weightb=1 / open_gop=0 / weightp=2 / keyint=240 / keyint_min=23 / scenecut=40 / intra_refresh=0 / rc_lookahead=50 / rc=2pass / mbtree=1 / bitrate=5037 / ratetol=1.0 / qcomp=0.60 / qpmin=0 / qpmax=69 / qpstep=4 / cplxblur=20.0 / qblur=0.5 / ip_ratio=1.40 / aq=1:1.00
  25. Language                                 : English
  26. Default                                  : Yes
  27. Forced                                   : No

  28. Audio
  29. ID                                       : 2
  30. Format                                   : DTS
  31. Format/Info                              : Digital Theater Systems
  32. Codec ID                                 : A_DTS
  33. Duration                                 : 2 h 23 min
  34. Bit rate mode                            : Constant
  35. Bit rate                                 : 1 509 kb/s
  36. Channel(s)                               : 6 channels
  37. Channel layout                           : C L R Ls Rs LFE
  38. Sampling rate                            : 48.0 kHz
  39. Frame rate                               : 93.750 FPS (512 SPF)
  40. Bit depth                                : 24 bits
  41. Compression mode                         : Lossy
  42. Stream size                              : 1.51 GiB (23%)
  43. Language                                 : English
  44. Default                                  : Yes
  45. Forced                                   : No

  46. Text
  47. ID                                       : 3
  48. Format                                   : UTF-8
  49. Codec ID                                 : S_TEXT/UTF8
  50. Codec ID/Info                            : UTF-8 Plain Text
  51. Duration                                 : 2 h 22 min
  52. Bit rate                                 : 41 b/s
  53. Count of elements                        : 1470
  54. Stream size                              : 43.4 KiB (0%)
  55. Language                                 : English
  56. Default                                  : No
  57. Forced                                   : No

  58. Menu
  59. 00:00:00.000                             : en:00:00:00.000
  60. 00:11:09.294                             : en:00:11:09.294
  61. 00:22:11.622                             : en:00:22:11.622
  62. 00:30:11.018                             : en:00:30:11.018
  63. 00:40:28.718                             : en:00:40:28.718
  64. 00:50:24.647                             : en:00:50:24.647
  65. 01:01:15.755                             : en:01:01:15.755
  66. 01:08:57.091                             : en:01:08:57.091
  67. 01:21:41.271                             : en:01:21:41.271
  68. 01:34:50.435                             : en:01:34:50.435
  69. 01:39:37.430                             : en:01:39:37.430
  70. 01:49:32.816                             : en:01:49:32.816
  71. 02:01:36.539                             : en:02:01:36.539
  72. 02:10:19.895                             : en:02:10:19.895
复制代码

海王/人鱼哥 Aquaman.2018.UK.VERSiON.720p.BluRay.x264-ViRGO 6.56GB-2.png






回复

使用道具 举报

蓝光币
80
发表于 2020-2-1 14:52:48 | 显示全部楼层
楼主发贴辛苦了,谢谢楼主分享!我觉得蓝光电影网是注册对了!
回复 支持 反对

使用道具 举报

蓝光币
3734
发表于 2020-2-2 00:06:13 | 显示全部楼层
谢谢楼主分享
回复 支持 反对

使用道具 举报

懒得打字嘛,点击右侧快捷回复 【右侧内容,后台自定义】
您需要登录后才可以回帖 登录 | 立即加入

本版积分规则

Archiver|小黑屋| 蓝光电影网 |网站地图

Copyright © 2021 Comsenz Inc. Powered by 蓝光电影网

蓝光电影网

本站内容由用户自主分享和转载自互联网,转载目的在于传递更多信息,并不代表本网赞同其观点和对其真实性负责。

如有侵权、违反国家法律政策行为,请联系我们,我们会第一时间及时清除和处理!

举报反馈邮箱:[email protected]

快速回复 返回顶部 返回列表