找回密码

蓝光电影网

查看: 756|回复: 4

[动作] 虎胆杀机/创伤中心 Trauma.Center.2019.1080p.BluRay.REMUX.AVC.DTS-HD.MA.5.1-FGT 18.58GB

[复制链接]
蓝光币
1022
发表于 2020-2-1 13:59:07 | 显示全部楼层 |阅读模式
虎胆杀机/创伤中心 Trauma.Center.2019.1080p.BluRay.REMUX.AVC.DTS-HD.MA.5.1-FGT 18.58GB-1.png

译  名 虎胆杀机 / 创伤中心
片  名 Trauma Center
年  代 2019
产  地 美国
类  别 行动 / 惊悚
语  言 英语 / 西班牙语
上映日期 2019-12-06(美国)
IMDb评分  5.0/10 from 2931 users
IMDb链接  https://www.imdb.com/title/tt9625664
豆瓣评分 4.1/10 from 651 users
豆瓣链接 https://movie.douban.com/subject/30447648/
片  长 87分钟
导  演 马特·伊斯坎达里 Matt Eskandari
编  剧 Paul Da Silva
主  演 布鲁斯·威利斯 Bruce Willis
       妮基·韦兰 Nicky Whelan
       斯蒂夫·古根伯格 Steve Guttenberg
       蒂托·奥蒂兹 Tito Ortiz
       特夏斯·巴特尔 Texas Battle
       罗曼·米蒂齐扬 Roman Mitichyan
       泰勒·乔恩·奥尔森 Tyler Jon Olson
       让·皮埃尔·普拉茨 Jean Pierre Prats
       Heather Johansen
       Lynn Gilmartin
       David B. Meadows
       Catherine Davis
       Sergio Rizzuto
       Jesse Pruett
       Carroll 'Pinky' Duwart III
       Jaime Irizarry


标  签 行动 | 犯罪 | 布鲁斯威利斯 | 美国 | 烂片 | 2019 | 惊悚 | 悬疑

简  介  

  一伙悍匪趁夜攻击了一位年轻女子地点的医院来寻觅他们的犯罪证据——残留在女子腿部的一颗子弹。一位受命庇护女子的老差人成了此时女子免遭杀戮的唯一希望。
  1. Video
  2. ID                                       : 1
  3. Format                                   : AVC
  4. Format/Info                              : Advanced Video Codec
  5. Format profile                           : [email protected]
  6. Format settings                          : CABAC / 4 Ref Frames
  7. Format settings, CABAC                   : Yes
  8. Format settings, Reference frames        : 4 frames
  9. Codec ID                                 : V_MPEG4/ISO/AVC
  10. Duration                                 : 1 h 27 min
  11. Bit rate mode                            : Variable
  12. Bit rate                                 : 27.2 Mb/s
  13. Maximum bit rate                         : 37.0 Mb/s
  14. Width                                    : 1 920 pixels
  15. Height                                   : 1 080 pixels
  16. Display aspect ratio                     : 16:9
  17. Frame rate mode                          : Constant
  18. Frame rate                               : 23.976 (24000/1001) FPS
  19. Color space                              : YUV
  20. Chroma subsampling                       : 4:2:0
  21. Bit depth                                : 8 bits
  22. Scan type                                : Progressive
  23. Bits/(Pixel*Frame)                       : 0.547
  24. Stream size                              : 16.5 GiB (89%)
  25. Title                                    : Trauma.Center.2019.1080p.BluRay.REMUX.AVC.DTS-HD.MA.5.1-FGT
  26. Language                                 : English
  27. Default                                  : No
  28. Forced                                   : No

  29. Audio
  30. ID                                       : 2
  31. Format                                   : DTS XLL
  32. Format/Info                              : Digital Theater Systems
  33. Commercial name                          : DTS-HD Master Audio
  34. Codec ID                                 : A_DTS
  35. Duration                                 : 1 h 27 min
  36. Bit rate mode                            : Variable
  37. Bit rate                                 : 3 322 kb/s
  38. Channel(s)                               : 6 channels
  39. Channel layout                           : C L R Ls Rs LFE
  40. Sampling rate                            : 48.0 kHz
  41. Frame rate                               : 93.750 FPS (512 SPF)
  42. Bit depth                                : 24 bits
  43. Compression mode                         : Lossless
  44. Stream size                              : 2.02 GiB (11%)
  45. Title                                    : Trauma.Center.2019.1080p.BluRay.REMUX.AVC.DTS-HD.MA.5.1-FGT
  46. Language                                 : English
  47. Default                                  : Yes
  48. Forced                                   : No

  49. Text #1
  50. ID                                       : 3
  51. Format                                   : UTF-8
  52. Codec ID                                 : S_TEXT/UTF8
  53. Codec ID/Info                            : UTF-8 Plain Text
  54. Duration                                 : 1 h 19 min
  55. Bit rate                                 : 39 b/s
  56. Count of elements                        : 748
  57. Stream size                              : 22.7 KiB (0%)
  58. Title                                    : English-SRT
  59. Language                                 : English
  60. Default                                  : Yes
  61. Forced                                   : No

  62. Text #2
  63. ID                                       : 4
  64. Format                                   : PGS
  65. Muxing mode                              : zlib
  66. Codec ID                                 : S_HDMV/PGS
  67. Codec ID/Info                            : Picture based subtitle format used on BDs/HD-DVDs
  68. Duration                                 : 1 h 19 min
  69. Bit rate                                 : 28.0 kb/s
  70. Count of elements                        : 1756
  71. Stream size                              : 15.9 MiB (0%)
  72. Title                                    : English-PGS
  73. Language                                 : English
  74. Default                                  : No
  75. Forced                                   : No

  76. Text #3
  77. ID                                       : 5
  78. Format                                   : PGS
  79. Muxing mode                              : zlib
  80. Codec ID                                 : S_HDMV/PGS
  81. Codec ID/Info                            : Picture based subtitle format used on BDs/HD-DVDs
  82. Duration                                 : 1 h 19 min
  83. Bit rate                                 : 23.1 kb/s
  84. Count of elements                        : 1494
  85. Stream size                              : 13.1 MiB (0%)
  86. Title                                    : Spanish-PGS
  87. Language                                 : Spanish
  88. Default                                  : No
  89. Forced                                   : No

  90. Menu
  91. 00:00:00.000                             : en:Chapter 01
  92. 00:02:45.999                             : en:Chapter 02
  93. 00:08:48.611                             : en:Chapter 03
  94. 00:14:10.683                             : en:Chapter 04
  95. 00:17:57.409                             : en:Chapter 05
  96. 00:22:01.945                             : en:Chapter 06
  97. 00:25:46.795                             : en:Chapter 07
  98. 00:28:08.895                             : en:Chapter 08
  99. 00:35:48.104                             : en:Chapter 09
  100. 00:43:25.519                             : en:Chapter 10
  101. 00:47:59.585                             : en:Chapter 11
  102. 00:51:00.432                             : en:Chapter 12
  103. 00:57:30.989                             : en:Chapter 13
  104. 01:07:26.250                             : en:Chapter 14
  105. 01:12:26.467                             : en:Chapter 15
  106. 01:18:04.805                             : en:Chapter 16
复制代码

虎胆杀机/创伤中心 Trauma.Center.2019.1080p.BluRay.REMUX.AVC.DTS-HD.MA.5.1-FGT 18.58GB-2.png 虎胆杀机/创伤中心 Trauma.Center.2019.1080p.BluRay.REMUX.AVC.DTS-HD.MA.5.1-FGT 18.58GB-3.png 虎胆杀机/创伤中心 Trauma.Center.2019.1080p.BluRay.REMUX.AVC.DTS-HD.MA.5.1-FGT 18.58GB-4.png






回复

使用道具 举报

蓝光币
72
发表于 2020-2-1 21:52:42 | 显示全部楼层

这个帖子不回对不起自己!我想我是一天也不能离开蓝光电影网
回复 支持 反对

使用道具 举报

懒得打字嘛,点击右侧快捷回复 【右侧内容,后台自定义】
您需要登录后才可以回帖 登录 | 立即加入

本版积分规则

Archiver|小黑屋| 蓝光电影网 |网站地图

Copyright © 2021 Comsenz Inc. Powered by 蓝光电影网

蓝光电影网

本站内容由用户自主分享和转载自互联网,转载目的在于传递更多信息,并不代表本网赞同其观点和对其真实性负责。

如有侵权、违反国家法律政策行为,请联系我们,我们会第一时间及时清除和处理!

举报反馈邮箱:[email protected]

快速回复 返回顶部 返回列表