找回密码

蓝光电影网

查看: 1868|回复: 3

[动画] 白蛇:缘起 White.Snake.2019.CHINESE.1080p.BluRay.REMUX.AVC.DTS-HD.MA.5.1-FGT 25.91GB

[复制链接]
蓝光币
1020
发表于 2020-2-1 14:04:13 | 显示全部楼层 |阅读模式
白蛇:缘起 White.Snake.2019.CHINESE.1080p.BluRay.REMUX.AVC.DTS-HD.MA.5.1-FGT 25.91GB-1.png

译  名 White Snake
片  名 白蛇:缘起
年  代 2019
产  地 中国大陆 / 美国
类  别 恋爱 / 动画 / 奇异
语  言 汉语普通话
上映日期 2019-01-11(中国大陆)
IMDb评分  7.1/10 from 839 users
IMDb链接  https://www.imdb.com/title/tt9288776
豆瓣评分 7.9/10 from 468207 users
豆瓣链接 https://movie.douban.com/subject/30331149/
片  长 99分钟
导  演 黄家康 Jiakang Huang / 赵霁 Ji Zhao
编  剧 大毛 Damao
主  演 张喆 Zhe Zhang
       杨天翔 Tianxiang Yang
       唐小喜 Xiaoxi Tang
       刘薇 Wei Liu
       张遥函 Yaohan Zhang
       郑小璞 Xiaopu Zheng
       张博恒 Boheng Zhang
       张赫 He Zhang
       马程 Cheng Ma
       程寅 Yin Cheng
       陈霖生 Linsheng Chen
       惠龙 Long Hui
       林强 Qiang Lin
       章斌  Bin Zhang


标  签 动画 | 恋爱 | 唯美 | 中国 | 古装 | 神话 | 奇异 | 中国大陆

简  介  

  阴暗洞中,白蛇(张喆 配音)苦苦修炼却不得其法,小青见此情形,将发髻上的碧玉簪子取下,令白蛇攥在手中。那一刻,五百年前的记忆瞬间苏醒。五百年前,晚唐君主昏聩庸碌,把握魔法的国师只手遮天,号令全国百姓捕蛇修法。为了拯救族群,白蛇冒险谋杀,成果却遭受挫败,还落空了记忆。当她再度醒来,发现自己被一个专门捕蛇的村子所救下,而阿谁怯懦却善良的青年许宣(杨天翔 配音)则吸引了白蛇的留意。与此同时,国师派出爪牙四周追随白蛇的着落,而蛇族更误解白蛇潜逃人类,持续不断派出杀手。
  五百年后的一段姻缘,早在这浊世之间便已缔结……

获奖情况  

  第29届安锡国际动画节(2019)
  长篇动画单元 长片水晶奖(提名) 黄家康 / 赵霁

  第32届中国电影金鸡奖(2019)
  最好美术片(提名)

  第67届美国音效剪辑协会奖(2020)
  金卷轴奖 最好动画片音效剪辑(提名)

  第6届豆瓣电影年度榜单(2019)
  评分最高的华语电影(提名)
  评分最高的动画片(提名)
  1. Video
  2. ID                                       : 1
  3. Format                                   : AVC
  4. Format/Info                              : Advanced Video Codec
  5. Format profile                           : [email protected]
  6. Format settings                          : CABAC / 4 Ref Frames
  7. Format settings, CABAC                   : Yes
  8. Format settings, Reference frames        : 4 frames
  9. Codec ID                                 : V_MPEG4/ISO/AVC
  10. Duration                                 : 1 h 39 min
  11. Bit rate mode                            : Variable
  12. Bit rate                                 : 33.1 Mb/s
  13. Maximum bit rate                         : 35.0 Mb/s
  14. Width                                    : 1 920 pixels
  15. Height                                   : 1 080 pixels
  16. Display aspect ratio                     : 16:9
  17. Frame rate mode                          : Constant
  18. Frame rate                               : 24.000 FPS
  19. Color space                              : YUV
  20. Chroma subsampling                       : 4:2:0
  21. Bit depth                                : 8 bits
  22. Scan type                                : Progressive
  23. Bits/(Pixel*Frame)                       : 0.664
  24. Stream size                              : 22.9 GiB (88%)
  25. Title                                    : White.Snake.2019.CHINESE.1080p.BluRay.REMUX.AVC.DTS-HD.MA.5.1-FGT
  26. Language                                 : English
  27. Default                                  : No
  28. Forced                                   : No

  29. Audio #1
  30. ID                                       : 2
  31. Format                                   : DTS XLL
  32. Format/Info                              : Digital Theater Systems
  33. Commercial name                          : DTS-HD Master Audio
  34. Codec ID                                 : A_DTS
  35. Duration                                 : 1 h 39 min
  36. Bit rate mode                            : Variable
  37. Bit rate                                 : 2 185 kb/s
  38. Channel(s)                               : 6 channels
  39. Channel layout                           : C L R Ls Rs LFE
  40. Sampling rate                            : 48.0 kHz
  41. Frame rate                               : 93.750 FPS (512 SPF)
  42. Bit depth                                : 24 bits
  43. Compression mode                         : Lossless
  44. Stream size                              : 1.51 GiB (6%)
  45. Title                                    : White.Snake.2019.CHINESE.1080p.BluRay.REMUX.AVC.DTS-HD.MA.5.1-FGT
  46. Language                                 : Chinese
  47. Default                                  : Yes
  48. Forced                                   : No

  49. Audio #2
  50. ID                                       : 3
  51. Format                                   : DTS XLL
  52. Format/Info                              : Digital Theater Systems
  53. Commercial name                          : DTS-HD Master Audio
  54. Codec ID                                 : A_DTS
  55. Duration                                 : 1 h 39 min
  56. Bit rate mode                            : Variable
  57. Bit rate                                 : 2 099 kb/s
  58. Channel(s)                               : 6 channels
  59. Channel layout                           : C L R Ls Rs LFE
  60. Sampling rate                            : 48.0 kHz
  61. Frame rate                               : 93.750 FPS (512 SPF)
  62. Bit depth                                : 24 bits
  63. Compression mode                         : Lossless
  64. Stream size                              : 1.45 GiB (6%)
  65. Title                                    : White.Snake.2019.CHINESE.1080p.BluRay.REMUX.AVC.DTS-HD.MA.5.1-FGT
  66. Language                                 : English
  67. Default                                  : No
  68. Forced                                   : No

  69. Text #1
  70. ID                                       : 4
  71. Format                                   : UTF-8
  72. Codec ID                                 : S_TEXT/UTF8
  73. Codec ID/Info                            : UTF-8 Plain Text
  74. Duration                                 : 1 h 35 min
  75. Bit rate                                 : 35 b/s
  76. Count of elements                        : 939
  77. Stream size                              : 24.9 KiB (0%)
  78. Title                                    : English-SRT
  79. Language                                 : English
  80. Default                                  : Yes
  81. Forced                                   : No

  82. Text #2
  83. ID                                       : 5
  84. Format                                   : PGS
  85. Muxing mode                              : zlib
  86. Codec ID                                 : S_HDMV/PGS
  87. Codec ID/Info                            : Picture based subtitle format used on BDs/HD-DVDs
  88. Duration                                 : 1 h 37 min
  89. Bit rate                                 : 27.4 kb/s
  90. Count of elements                        : 2648
  91. Stream size                              : 19.0 MiB (0%)
  92. Title                                    : English-PGS
  93. Language                                 : English
  94. Default                                  : No
  95. Forced                                   : No

  96. Text #3
  97. ID                                       : 6
  98. Format                                   : PGS
  99. Muxing mode                              : zlib
  100. Codec ID                                 : S_HDMV/PGS
  101. Codec ID/Info                            : Picture based subtitle format used on BDs/HD-DVDs
  102. Duration                                 : 1 s 188 ms
  103. Bit rate                                 : 124 kb/s
  104. Count of elements                        : 2
  105. Stream size                              : 17.9 KiB (0%)
  106. Title                                    : English-FORCED-PGS
  107. Language                                 : English
  108. Default                                  : No
  109. Forced                                   : No

  110. Text #4
  111. ID                                       : 7
  112. Format                                   : PGS
  113. Muxing mode                              : zlib
  114. Codec ID                                 : S_HDMV/PGS
  115. Codec ID/Info                            : Picture based subtitle format used on BDs/HD-DVDs
  116. Duration                                 : 1 h 33 min
  117. Bit rate                                 : 18.5 kb/s
  118. Count of elements                        : 2090
  119. Stream size                              : 12.4 MiB (0%)
  120. Title                                    : English-SDH-PGS
  121. Language                                 : English
  122. Default                                  : No
  123. Forced                                   : No

  124. Text #5
  125. ID                                       : 8
  126. Format                                   : PGS
  127. Muxing mode                              : zlib
  128. Codec ID                                 : S_HDMV/PGS
  129. Codec ID/Info                            : Picture based subtitle format used on BDs/HD-DVDs
  130. Duration                                 : 1 h 33 min
  131. Bit rate                                 : 20.4 kb/s
  132. Count of elements                        : 2092
  133. Stream size                              : 13.7 MiB (0%)
  134. Title                                    : Spanish-PGS
  135. Language                                 : Spanish
  136. Default                                  : No
  137. Forced                                   : No

  138. Menu
  139. 00:00:00.000                             : en:Chapter 01
  140. 00:04:29.625                             : en:Chapter 02
  141. 00:10:26.708                             : en:Chapter 03
  142. 00:16:52.791                             : en:Chapter 04
  143. 00:22:43.541                             : en:Chapter 05
  144. 00:27:42.250                             : en:Chapter 06
  145. 00:32:41.208                             : en:Chapter 07
  146. 00:38:10.041                             : en:Chapter 08
  147. 00:44:17.375                             : en:Chapter 09
  148. 00:49:38.125                             : en:Chapter 10
  149. 00:54:35.500                             : en:Chapter 11
  150. 00:59:18.791                             : en:Chapter 12
  151. 01:04:12.791                             : en:Chapter 13
  152. 01:08:58.958                             : en:Chapter 14
  153. 01:15:38.166                             : en:Chapter 15
  154. 01:20:22.041                             : en:Chapter 16
  155. 01:27:52.916                             : en:Chapter 17
  156. 01:31:59.583                             : en:Chapter 18
复制代码

白蛇:缘起 White.Snake.2019.CHINESE.1080p.BluRay.REMUX.AVC.DTS-HD.MA.5.1-FGT 25.91GB-2.png 白蛇:缘起 White.Snake.2019.CHINESE.1080p.BluRay.REMUX.AVC.DTS-HD.MA.5.1-FGT 25.91GB-3.png 白蛇:缘起 White.Snake.2019.CHINESE.1080p.BluRay.REMUX.AVC.DTS-HD.MA.5.1-FGT 25.91GB-4.png






回复

使用道具 举报

蓝光币
133
发表于 2020-2-3 14:07:21 | 显示全部楼层
谢谢LZ发现好片
回复 支持 反对

使用道具 举报

蓝光币
142
发表于 2020-2-9 11:23:27 | 显示全部楼层
楼主发贴辛苦了,谢谢楼主分享!我觉得蓝光电影网是注册对了!
回复 支持 反对

使用道具 举报

蓝光币
540
发表于 2020-3-30 13:01:03 | 显示全部楼层
谢谢楼主分享~~~~
回复 支持 反对

使用道具 举报

懒得打字嘛,点击右侧快捷回复 【右侧内容,后台自定义】
您需要登录后才可以回帖 登录 | 立即加入

本版积分规则

Archiver|小黑屋| 蓝光电影网 |网站地图

Copyright © 2021 Comsenz Inc. Powered by 蓝光电影网

蓝光电影网

本站内容由用户自主分享和转载自互联网,转载目的在于传递更多信息,并不代表本网赞同其观点和对其真实性负责。

如有侵权、违反国家法律政策行为,请联系我们,我们会第一时间及时清除和处理!

举报反馈邮箱:[email protected]

快速回复 返回顶部 返回列表