找回密码

蓝光电影网

查看: 582|回复: 2

[剧情] 娑婆诃 Svaha.The.Sixth.Finger.2019.KOREAN.1080p.BluRay.REMUX.AVC.DTS-HD.MA.5.1-FGT 30.83GB

[复制链接]
蓝光币
886
发表于 2020-2-1 14:06:22 | 显示全部楼层 |阅读模式
娑婆诃 Svaha.The.Sixth.Finger.2019.KOREAN.1080p.BluRay.REMUX.AVC.DTS-HD.MA.5.1-FGT 30.83GB-1.png

译  名 娑婆诃 / Sabaha / Svaha: The Sixth Finger / 沙婆诃
片  名 ???
年  代 2019
产  地 韩国
类  别 剧情 / 悬疑 / 惊悚
语  言 韩语
上映日期 2019-02-20(韩国)
IMDb评分  6.2/10 from 1800 users
IMDb链接  https://www.imdb.com/title/tt7299298
豆瓣评分 7.1/10 from 21140 users
豆瓣链接 https://movie.douban.com/subject/27109171/
片  长 122分钟
导  演 张宰贤 Jae-hyun Jang
编  剧 张宰贤 Jae-hyun Jang
主  演 李政宰 Jung-Jae Lee
       朴正民 Jeong-min Park
       李在仁 Jae-in Lee
       陈善圭 Seon-kyu Jin


标  签 韩国 | 宗教 | 悬疑 | 惊悚 | 可骇 | 邪教 | 2019 | 犯罪

简  介  

  《娑婆诃》是张宰贤执导的悬疑惊悚电影,由李政宰、朴正民主演,于2019年2月20日在韩国上映。
  该片报告清查新兴宗教团体受贿案件的朴牧师(李政宰饰)在遭受奥秘人物和事务后发生的悬疑惊悚故事。

获奖情况  

  第40届韩国电影青龙奖(2019)
  最好导演(提名) 张宰贤
  最好新人女演员(提名) 李在仁
  最好剧本(提名)
  最好摄影(提名)
  最好美术(提名)
  最好配乐
  技术奖(提名)

  第55届百想艺术大赏(2019)
  电影类 最好影片(提名)
  电影类 最好导演(提名) 张宰贤
  电影类 最好新人女演员 李在仁
  1. Video
  2. ID                                       : 1
  3. Format                                   : AVC
  4. Format/Info                              : Advanced Video Codec
  5. Format profile                           : [email protected]
  6. Format settings                          : CABAC / 4 Ref Frames
  7. Format settings, CABAC                   : Yes
  8. Format settings, Reference frames        : 4 frames
  9. Format settings, GOP                     : M=3, N=24
  10. Codec ID                                 : V_MPEG4/ISO/AVC
  11. Duration                                 : 2 h 2 min
  12. Bit rate mode                            : Variable
  13. Bit rate                                 : 31.5 Mb/s
  14. Maximum bit rate                         : 38.0 Mb/s
  15. Width                                    : 1 920 pixels
  16. Height                                   : 1 080 pixels
  17. Display aspect ratio                     : 16:9
  18. Frame rate mode                          : Constant
  19. Frame rate                               : 23.976 (24000/1001) FPS
  20. Standard                                 : NTSC
  21. Color space                              : YUV
  22. Chroma subsampling                       : 4:2:0
  23. Bit depth                                : 8 bits
  24. Scan type                                : Progressive
  25. Bits/(Pixel*Frame)                       : 0.634
  26. Stream size                              : 27.1 GiB (88%)
  27. Title                                    : Svaha.The.Sixth.Finger.2019.KOREAN.1080p.BluRay.REMUX.AVC.DTS-HD.MA.5.1-FGT
  28. Language                                 : English
  29. Default                                  : No
  30. Forced                                   : No
  31. Color range                              : Limited
  32. Color primaries                          : BT.709
  33. Transfer characteristics                 : BT.709
  34. Matrix coefficients                      : BT.709

  35. Audio #1
  36. ID                                       : 2
  37. Format                                   : DTS XLL
  38. Format/Info                              : Digital Theater Systems
  39. Commercial name                          : DTS-HD Master Audio
  40. Codec ID                                 : A_DTS
  41. Duration                                 : 2 h 2 min
  42. Bit rate mode                            : Variable
  43. Bit rate                                 : 3 458 kb/s
  44. Channel(s)                               : 6 channels
  45. Channel layout                           : C L R Ls Rs LFE
  46. Sampling rate                            : 48.0 kHz
  47. Frame rate                               : 93.750 FPS (512 SPF)
  48. Bit depth                                : 24 bits
  49. Compression mode                         : Lossless
  50. Stream size                              : 2.97 GiB (10%)
  51. Title                                    : Svaha.The.Sixth.Finger.2019.KOREAN.1080p.BluRay.REMUX.AVC.DTS-HD.MA.5.1-FGT
  52. Language                                 : Korean
  53. Default                                  : Yes
  54. Forced                                   : No

  55. Audio #2
  56. ID                                       : 3
  57. Format                                   : AC-3
  58. Format/Info                              : Audio Coding 3
  59. Commercial name                          : Dolby Digital
  60. Codec ID                                 : A_AC3
  61. Duration                                 : 2 h 2 min
  62. Bit rate mode                            : Constant
  63. Bit rate                                 : 448 kb/s
  64. Channel(s)                               : 2 channels
  65. Channel layout                           : L R
  66. Sampling rate                            : 48.0 kHz
  67. Frame rate                               : 31.250 FPS (1536 SPF)
  68. Bit depth                                : 16 bits
  69. Compression mode                         : Lossy
  70. Stream size                              : 394 MiB (1%)
  71. Title                                    : Svaha.The.Sixth.Finger.2019.KOREAN.1080p.BluRay.REMUX.AVC.DTS-HD.MA.5.1-FGT
  72. Language                                 : Korean
  73. Service kind                             : Complete Main
  74. Default                                  : No
  75. Forced                                   : No

  76. Audio #3
  77. ID                                       : 4
  78. Format                                   : AC-3
  79. Format/Info                              : Audio Coding 3
  80. Commercial name                          : Dolby Digital
  81. Codec ID                                 : A_AC3
  82. Duration                                 : 2 h 2 min
  83. Bit rate mode                            : Constant
  84. Bit rate                                 : 448 kb/s
  85. Channel(s)                               : 2 channels
  86. Channel layout                           : L R
  87. Sampling rate                            : 48.0 kHz
  88. Frame rate                               : 31.250 FPS (1536 SPF)
  89. Bit depth                                : 16 bits
  90. Compression mode                         : Lossy
  91. Stream size                              : 394 MiB (1%)
  92. Title                                    : Svaha.The.Sixth.Finger.2019.KOREAN.1080p.BluRay.REMUX.AVC.DTS-HD.MA.5.1-FGT
  93. Language                                 : Korean
  94. Service kind                             : Complete Main
  95. Default                                  : No
  96. Forced                                   : No

  97. Text #1
  98. ID                                       : 5
  99. Format                                   : UTF-8
  100. Codec ID                                 : S_TEXT/UTF8
  101. Codec ID/Info                            : UTF-8 Plain Text
  102. Duration                                 : 1 h 58 min
  103. Bit rate                                 : 37 b/s
  104. Count of elements                        : 1146
  105. Stream size                              : 33.0 KiB (0%)
  106. Title                                    : English-SRT
  107. Language                                 : English
  108. Default                                  : Yes
  109. Forced                                   : No

  110. Text #2
  111. ID                                       : 6
  112. Format                                   : PGS
  113. Muxing mode                              : zlib
  114. Codec ID                                 : S_HDMV/PGS
  115. Codec ID/Info                            : Picture based subtitle format used on BDs/HD-DVDs
  116. Duration                                 : 1 h 57 min
  117. Bit rate                                 : 22.0 kb/s
  118. Count of elements                        : 2189
  119. Stream size                              : 18.5 MiB (0%)
  120. Title                                    : Korean-PGS
  121. Language                                 : Korean
  122. Default                                  : No
  123. Forced                                   : No

  124. Text #3
  125. ID                                       : 7
  126. Format                                   : PGS
  127. Muxing mode                              : zlib
  128. Codec ID                                 : S_HDMV/PGS
  129. Codec ID/Info                            : Picture based subtitle format used on BDs/HD-DVDs
  130. Duration                                 : 1 h 58 min
  131. Bit rate                                 : 22.9 kb/s
  132. Count of elements                        : 2132
  133. Stream size                              : 19.5 MiB (0%)
  134. Title                                    : English-PGS
  135. Language                                 : English
  136. Default                                  : No
  137. Forced                                   : No

  138. Text #4
  139. ID                                       : 8
  140. Format                                   : PGS
  141. Muxing mode                              : zlib
  142. Codec ID                                 : S_HDMV/PGS
  143. Codec ID/Info                            : Picture based subtitle format used on BDs/HD-DVDs
  144. Duration                                 : 36 min 6 s
  145. Bit rate                                 : 3 580 b/s
  146. Count of elements                        : 98
  147. Stream size                              : 947 KiB (0%)
  148. Title                                    : Korean-FORCED-PGS
  149. Language                                 : Korean
  150. Default                                  : No
  151. Forced                                   : No

  152. Menu
  153. 00:00:00.000                             : en:Chapter 01
  154. 00:09:33.781                             : en:Chapter 02
  155. 00:16:53.095                             : en:Chapter 03
  156. 00:28:25.495                             : en:Chapter 04
  157. 00:36:52.668                             : en:Chapter 05
  158. 00:47:17.459                             : en:Chapter 06
  159. 00:54:52.706                             : en:Chapter 07
  160. 01:01:11.668                             : en:Chapter 08
  161. 01:10:49.119                             : en:Chapter 09
  162. 01:17:49.748                             : en:Chapter 10
  163. 01:22:18.808                             : en:Chapter 11
  164. 01:30:52.738                             : en:Chapter 12
  165. 01:42:01.824                             : en:Chapter 13
  166. 01:47:43.331                             : en:Chapter 14
  167. 01:54:41.583                             : en:Chapter 15
  168. 01:58:37.527                             : en:Chapter 16
复制代码

娑婆诃 Svaha.The.Sixth.Finger.2019.KOREAN.1080p.BluRay.REMUX.AVC.DTS-HD.MA.5.1-FGT 30.83GB-1.png 娑婆诃 Svaha.The.Sixth.Finger.2019.KOREAN.1080p.BluRay.REMUX.AVC.DTS-HD.MA.5.1-FGT 30.83GB-3.png 娑婆诃 Svaha.The.Sixth.Finger.2019.KOREAN.1080p.BluRay.REMUX.AVC.DTS-HD.MA.5.1-FGT 30.83GB-4.png






回复

使用道具 举报

蓝光币
603
发表于 2020-8-16 15:47:26 | 显示全部楼层
楼主发贴辛苦了,谢谢楼主分享!我觉得蓝光电影网是注册对了!
回复 支持 反对

使用道具 举报

懒得打字嘛,点击右侧快捷回复 【右侧内容,后台自定义】
您需要登录后才可以回帖 登录 | 立即加入

本版积分规则

Archiver|小黑屋| 蓝光电影网 |网站地图

Copyright © 2021 Comsenz Inc. Powered by 蓝光电影网

蓝光电影网

本站内容由用户自主分享和转载自互联网,转载目的在于传递更多信息,并不代表本网赞同其观点和对其真实性负责。

如有侵权、违反国家法律政策行为,请联系我们,我们会第一时间及时清除和处理!

举报反馈邮箱:[email protected]

快速回复 返回顶部 返回列表