找回密码

蓝光电影网

查看: 812|回复: 6

[REMUX.HEVC] 街区男孩/头巾少年 Boyz.n.the.Hood.1991.2160p.BluRay.REMUX.HEVC.DTS-HD.MA.TrueHD.7.1.Atmos-FGT 51.94GB

[复制链接]
蓝光币
886
发表于 2020-2-1 14:07:35 | 显示全部楼层 |阅读模式
街区男孩/头巾少年 Boyz.n.the.Hood.1991.2160p.BluRay.REMUX.HEVC.DTS-HD.MA.TrueHD.7.1.Atmos-FGT 51.94GB-1.png

译  名 街区男孩 / 头巾少年 / 邻家少年杀人事务
片  名 Boyz n the Hood
年  代 1991
产  地 美国
类  别 剧情
语  言 英语
上映日期 1991-07-12
IMDb评分  7.7/10 from 116499 users
IMDb链接  https://www.imdb.com/title/tt0101507
豆瓣评分 8.1/10 from 1166 users
豆瓣链接 https://movie.douban.com/subject/1292872/
片  长 112 分钟
导  演 John Singleton
编  剧 John Singleton
主  演 小库珀·古丁 Cuba Gooding Jr.
       劳伦斯·菲什伯恩 Laurence Fishburne
       艾斯·库珀 Ice Cube
       安吉拉·贝塞特 Angela Bassett
       Hudhail Al-Amir


标  签 美国 | 犯罪 | 黑人 | 青春 | 1991 | 美国电影 | 种族 | hiphop

简  介  

  在美国西部的黑人街区中,暴力与犯罪几近随时都在发生,街上闲晃的青年与草丛里发臭的尸身点缀着小门生提瑞·斯代尔天天与伙伴们的生活,提瑞性情多话好胜,在课堂上与同学大打脱手,为了他的教育题目,母亲将提瑞送到了前夫福瑞斯(劳伦斯·菲什伯恩 Laurence Fishburne 饰)那边,父亲有着强悍的本性,提瑞在他的指导下长大着……七年以后,提瑞(小库珀·古丁 Cuba Gooding Jr 饰)已是一位青年,黑人街区的紊乱状态并没有改良,提瑞和他的朋友们卷入了宿命般的陌头仇杀中……
  本片编导约翰·辛格顿以23岁之龄获得奥斯卡最好导演提名,连结着最年轻获提名导演的记载。

获奖情况  

  第64届奥斯卡金像奖(1992)
  最好导演(提名) 约翰·辛格顿
  最好原创剧本(提名) 约翰·辛格顿
  1. Video
  2. ID                                       : 1
  3. Format                                   : HEVC
  4. Format/Info                              : High Efficiency Video Coding
  5. Format profile                           : Main [email protected]@High
  6. HDR format                               : SMPTE ST 2086, HDR10 compatible
  7. Codec ID                                 : V_MPEGH/ISO/HEVC
  8. Duration                                 : 1 h 52 min
  9. Bit rate                                 : 50.7 Mb/s
  10. Width                                    : 3 840 pixels
  11. Height                                   : 2 160 pixels
  12. Display aspect ratio                     : 16:9
  13. Frame rate mode                          : Constant
  14. Frame rate                               : 23.976 (24000/1001) FPS
  15. Color space                              : YUV
  16. Chroma subsampling                       : 4:2:0 (Type 2)
  17. Bit depth                                : 10 bits
  18. Bits/(Pixel*Frame)                       : 0.255
  19. Stream size                              : 39.7 GiB (77%)
  20. Title                                    : Boyz.n.the.Hood.1991.2160p.BluRay.REMUX.HEVC.DTS-HD.MA.TrueHD.7.1.Atmos-FGT
  21. Language                                 : English
  22. Default                                  : No
  23. Forced                                   : No
  24. Color range                              : Limited
  25. Color primaries                          : BT.2020
  26. Transfer characteristics                 : PQ
  27. Matrix coefficients                      : BT.2020 non-constant
  28. Mastering display color primaries        : Display P3
  29. Mastering display luminance              : min: 0.0050 cd/m2, max: 4000 cd/m2
  30. Maximum Content Light Level              : 3991 cd/m2
  31. Maximum Frame-Average Light Level        : 186 cd/m2

  32. Audio #1
  33. ID                                       : 2
  34. Format                                   : MLP FBA 16-ch
  35. Format/Info                              : Meridian Lossless Packing FBA with 16-channel presentation
  36. Commercial name                          : Dolby TrueHD with Dolby Atmos
  37. Codec ID                                 : A_TRUEHD
  38. Duration                                 : 1 h 52 min
  39. Bit rate mode                            : Variable
  40. Bit rate                                 : 3 264 kb/s
  41. Maximum bit rate                         : 5 040 kb/s
  42. Channel(s)                               : 8 channels
  43. Channel layout                           : L R C LFE Ls Rs Lb Rb
  44. Sampling rate                            : 48.0 kHz
  45. Frame rate                               : 1 200.000 FPS (40 SPF)
  46. Compression mode                         : Lossless
  47. Stream size                              : 2.56 GiB (5%)
  48. Title                                    : Boyz.n.the.Hood.1991.2160p.BluRay.REMUX.HEVC.DTS-HD.MA.TrueHD.7.1.Atmos-FGT
  49. Language                                 : English
  50. Default                                  : Yes
  51. Forced                                   : No
  52. Number of dynamic objects                : 11
  53. Bed channel count                        : 1 channel
  54. Bed channel configuration                : LFE

  55. Audio #2
  56. ID                                       : 3
  57. Format                                   : DTS XLL
  58. Format/Info                              : Digital Theater Systems
  59. Commercial name                          : DTS-HD Master Audio
  60. Codec ID                                 : A_DTS
  61. Duration                                 : 1 h 52 min
  62. Bit rate mode                            : Variable
  63. Bit rate                                 : 4 039 kb/s
  64. Channel(s)                               : 8 channels
  65. Channel layout                           : C L R LFE Lb Rb Lss Rss
  66. Sampling rate                            : 48.0 kHz
  67. Frame rate                               : 93.750 FPS (512 SPF)
  68. Bit depth                                : 24 bits
  69. Compression mode                         : Lossless
  70. Stream size                              : 3.16 GiB (6%)
  71. Title                                    : Boyz.n.the.Hood.1991.2160p.BluRay.REMUX.HEVC.DTS-HD.MA.TrueHD.7.1.Atmos-FGT
  72. Language                                 : English
  73. Default                                  : No
  74. Forced                                   : No

  75. Audio #3
  76. ID                                       : 4
  77. Format                                   : AC-3
  78. Format/Info                              : Audio Coding 3
  79. Commercial name                          : Dolby Digital
  80. Codec ID                                 : A_AC3
  81. Duration                                 : 1 h 52 min
  82. Bit rate mode                            : Constant
  83. Bit rate                                 : 640 kb/s
  84. Channel(s)                               : 6 channels
  85. Channel layout                           : L R C LFE Ls Rs
  86. Sampling rate                            : 48.0 kHz
  87. Frame rate                               : 31.250 FPS (1536 SPF)
  88. Bit depth                                : 16 bits
  89. Compression mode                         : Lossy
  90. Stream size                              : 513 MiB (1%)
  91. Title                                    : Boyz.n.the.Hood.1991.2160p.BluRay.REMUX.HEVC.DTS-HD.MA.TrueHD.7.1.Atmos-FGT
  92. Language                                 : English
  93. Service kind                             : Complete Main
  94. Default                                  : No
  95. Forced                                   : No

  96. Audio #4
  97. ID                                       : 5
  98. Format                                   : DTS XLL
  99. Format/Info                              : Digital Theater Systems
  100. Commercial name                          : DTS-HD Master Audio
  101. Codec ID                                 : A_DTS
  102. Duration                                 : 1 h 52 min
  103. Bit rate mode                            : Variable
  104. Bit rate                                 : 1 561 kb/s
  105. Channel(s)                               : 2 channels
  106. Channel layout                           : L R
  107. Sampling rate                            : 48.0 kHz
  108. Frame rate                               : 93.750 FPS (512 SPF)
  109. Bit depth                                : 16 bits
  110. Compression mode                         : Lossless
  111. Stream size                              : 1.22 GiB (2%)
  112. Title                                    : Boyz.n.the.Hood.1991.2160p.BluRay.REMUX.HEVC.DTS-HD.MA.TrueHD.7.1.Atmos-FGT
  113. Language                                 : English
  114. Default                                  : No
  115. Forced                                   : No

  116. Audio #5
  117. ID                                       : 6
  118. Format                                   : AC-3
  119. Format/Info                              : Audio Coding 3
  120. Commercial name                          : Dolby Digital
  121. Codec ID                                 : A_AC3
  122. Duration                                 : 1 h 52 min
  123. Bit rate mode                            : Constant
  124. Bit rate                                 : 640 kb/s
  125. Channel(s)                               : 6 channels
  126. Channel layout                           : L R C LFE Ls Rs
  127. Sampling rate                            : 48.0 kHz
  128. Frame rate                               : 31.250 FPS (1536 SPF)
  129. Bit depth                                : 16 bits
  130. Compression mode                         : Lossy
  131. Stream size                              : 513 MiB (1%)
  132. Title                                    : Boyz.n.the.Hood.1991.2160p.BluRay.REMUX.HEVC.DTS-HD.MA.TrueHD.7.1.Atmos-FGT
  133. Language                                 : French
  134. Service kind                             : Complete Main
  135. Default                                  : No
  136. Forced                                   : No

  137. Audio #6
  138. ID                                       : 7
  139. Format                                   : AC-3
  140. Format/Info                              : Audio Coding 3
  141. Commercial name                          : Dolby Digital
  142. Codec ID                                 : A_AC3
  143. Duration                                 : 1 h 52 min
  144. Bit rate mode                            : Constant
  145. Bit rate                                 : 640 kb/s
  146. Channel(s)                               : 6 channels
  147. Channel layout                           : L R C LFE Ls Rs
  148. Sampling rate                            : 48.0 kHz
  149. Frame rate                               : 31.250 FPS (1536 SPF)
  150. Bit depth                                : 16 bits
  151. Compression mode                         : Lossy
  152. Stream size                              : 513 MiB (1%)
  153. Title                                    : Boyz.n.the.Hood.1991.2160p.BluRay.REMUX.HEVC.DTS-HD.MA.TrueHD.7.1.Atmos-FGT
  154. Language                                 : German
  155. Service kind                             : Complete Main
  156. Default                                  : No
  157. Forced                                   : No

  158. Audio #7
  159. ID                                       : 8
  160. Format                                   : AC-3
  161. Format/Info                              : Audio Coding 3
  162. Commercial name                          : Dolby Digital
  163. Codec ID                                 : A_AC3
  164. Duration                                 : 1 h 52 min
  165. Bit rate mode                            : Constant
  166. Bit rate                                 : 640 kb/s
  167. Channel(s)                               : 6 channels
  168. Channel layout                           : L R C LFE Ls Rs
  169. Sampling rate                            : 48.0 kHz
  170. Frame rate                               : 31.250 FPS (1536 SPF)
  171. Bit depth                                : 16 bits
  172. Compression mode                         : Lossy
  173. Stream size                              : 513 MiB (1%)
  174. Title                                    : Boyz.n.the.Hood.1991.2160p.BluRay.REMUX.HEVC.DTS-HD.MA.TrueHD.7.1.Atmos-FGT
  175. Language                                 : Italian
  176. Service kind                             : Complete Main
  177. Default                                  : No
  178. Forced                                   : No

  179. Audio #8
  180. ID                                       : 9
  181. Format                                   : AC-3
  182. Format/Info                              : Audio Coding 3
  183. Commercial name                          : Dolby Digital
  184. Codec ID                                 : A_AC3
  185. Duration                                 : 1 h 52 min
  186. Bit rate mode                            : Constant
  187. Bit rate                                 : 640 kb/s
  188. Channel(s)                               : 6 channels
  189. Channel layout                           : L R C LFE Ls Rs
  190. Sampling rate                            : 48.0 kHz
  191. Frame rate                               : 31.250 FPS (1536 SPF)
  192. Bit depth                                : 16 bits
  193. Compression mode                         : Lossy
  194. Stream size                              : 513 MiB (1%)
  195. Title                                    : Boyz.n.the.Hood.1991.2160p.BluRay.REMUX.HEVC.DTS-HD.MA.TrueHD.7.1.Atmos-FGT
  196. Language                                 : Polish
  197. Service kind                             : Complete Main
  198. Default                                  : No
  199. Forced                                   : No

  200. Audio #9
  201. ID                                       : 10
  202. Format                                   : AC-3
  203. Format/Info                              : Audio Coding 3
  204. Commercial name                          : Dolby Digital
  205. Codec ID                                 : A_AC3
  206. Duration                                 : 1 h 52 min
  207. Bit rate mode                            : Constant
  208. Bit rate                                 : 640 kb/s
  209. Channel(s)                               : 6 channels
  210. Channel layout                           : L R C LFE Ls Rs
  211. Sampling rate                            : 48.0 kHz
  212. Frame rate                               : 31.250 FPS (1536 SPF)
  213. Bit depth                                : 16 bits
  214. Compression mode                         : Lossy
  215. Stream size                              : 513 MiB (1%)
  216. Title                                    : Boyz.n.the.Hood.1991.2160p.BluRay.REMUX.HEVC.DTS-HD.MA.TrueHD.7.1.Atmos-FGT
  217. Language                                 : Portuguese
  218. Service kind                             : Complete Main
  219. Default                                  : No
  220. Forced                                   : No

  221. Audio #10
  222. ID                                       : 11
  223. Format                                   : AC-3
  224. Format/Info                              : Audio Coding 3
  225. Commercial name                          : Dolby Digital
  226. Codec ID                                 : A_AC3
  227. Duration                                 : 1 h 52 min
  228. Bit rate mode                            : Constant
  229. Bit rate                                 : 640 kb/s
  230. Channel(s)                               : 6 channels
  231. Channel layout                           : L R C LFE Ls Rs
  232. Sampling rate                            : 48.0 kHz
  233. Frame rate                               : 31.250 FPS (1536 SPF)
  234. Bit depth                                : 16 bits
  235. Compression mode                         : Lossy
  236. Stream size                              : 513 MiB (1%)
  237. Title                                    : Boyz.n.the.Hood.1991.2160p.BluRay.REMUX.HEVC.DTS-HD.MA.TrueHD.7.1.Atmos-FGT
  238. Language                                 : Spanish
  239. Service kind                             : Complete Main
  240. Default                                  : No
  241. Forced                                   : No

  242. Audio #11
  243. ID                                       : 12
  244. Format                                   : AC-3
  245. Format/Info                              : Audio Coding 3
  246. Commercial name                          : Dolby Digital
  247. Codec ID                                 : A_AC3
  248. Duration                                 : 1 h 52 min
  249. Bit rate mode                            : Constant
  250. Bit rate                                 : 640 kb/s
  251. Channel(s)                               : 6 channels
  252. Channel layout                           : L R C LFE Ls Rs
  253. Sampling rate                            : 48.0 kHz
  254. Frame rate                               : 31.250 FPS (1536 SPF)
  255. Bit depth                                : 16 bits
  256. Compression mode                         : Lossy
  257. Stream size                              : 513 MiB (1%)
  258. Title                                    : Boyz.n.the.Hood.1991.2160p.BluRay.REMUX.HEVC.DTS-HD.MA.TrueHD.7.1.Atmos-FGT
  259. Language                                 : Spanish
  260. Service kind                             : Complete Main
  261. Default                                  : No
  262. Forced                                   : No

  263. Audio #12
  264. ID                                       : 13
  265. Format                                   : AC-3
  266. Format/Info                              : Audio Coding 3
  267. Commercial name                          : Dolby Digital
  268. Codec ID                                 : A_AC3
  269. Duration                                 : 1 h 52 min
  270. Bit rate mode                            : Constant
  271. Bit rate                                 : 640 kb/s
  272. Channel(s)                               : 6 channels
  273. Channel layout                           : L R C LFE Ls Rs
  274. Sampling rate                            : 48.0 kHz
  275. Frame rate                               : 31.250 FPS (1536 SPF)
  276. Bit depth                                : 16 bits
  277. Compression mode                         : Lossy
  278. Stream size                              : 513 MiB (1%)
  279. Title                                    : Boyz.n.the.Hood.1991.2160p.BluRay.REMUX.HEVC.DTS-HD.MA.TrueHD.7.1.Atmos-FGT
  280. Language                                 : Thai
  281. Service kind                             : Complete Main
  282. Default                                  : No
  283. Forced                                   : No

  284. Audio #13
  285. ID                                       : 14
  286. Format                                   : AC-3
  287. Format/Info                              : Audio Coding 3
  288. Commercial name                          : Dolby Digital
  289. Codec ID                                 : A_AC3
  290. Duration                                 : 1 h 52 min
  291. Bit rate mode                            : Constant
  292. Bit rate                                 : 640 kb/s
  293. Channel(s)                               : 6 channels
  294. Channel layout                           : L R C LFE Ls Rs
  295. Sampling rate                            : 48.0 kHz
  296. Frame rate                               : 31.250 FPS (1536 SPF)
  297. Bit depth                                : 16 bits
  298. Compression mode                         : Lossy
  299. Stream size                              : 513 MiB (1%)
  300. Title                                    : Boyz.n.the.Hood.1991.2160p.BluRay.REMUX.HEVC.DTS-HD.MA.TrueHD.7.1.Atmos-FGT
  301. Language                                 : Turkish
  302. Service kind                             : Complete Main
  303. Default                                  : No
  304. Forced                                   : No

  305. Text #1
  306. ID                                       : 15
  307. Format                                   : UTF-8
  308. Codec ID                                 : S_TEXT/UTF8
  309. Codec ID/Info                            : UTF-8 Plain Text
  310. Duration                                 : 1 h 46 min
  311. Bit rate                                 : 59 b/s
  312. Count of elements                        : 1318
  313. Stream size                              : 46.6 KiB (0%)
  314. Title                                    : English-SRT
  315. Language                                 : English
  316. Default                                  : Yes
  317. Forced                                   : No

  318. Text #2
  319. ID                                       : 16
  320. Format                                   : PGS
  321. Muxing mode                              : zlib
  322. Codec ID                                 : S_HDMV/PGS
  323. Codec ID/Info                            : Picture based subtitle format used on BDs/HD-DVDs
  324. Duration                                 : 1 h 51 min
  325. Bit rate                                 : 38.5 kb/s
  326. Count of elements                        : 3080
  327. Stream size                              : 30.6 MiB (0%)
  328. Title                                    : English-PGS
  329. Language                                 : English
  330. Default                                  : No
  331. Forced                                   : No

  332. Text #3
  333. ID                                       : 17
  334. Format                                   : PGS
  335. Muxing mode                              : zlib
  336. Codec ID                                 : S_HDMV/PGS
  337. Codec ID/Info                            : Picture based subtitle format used on BDs/HD-DVDs
  338. Duration                                 : 1 h 46 min
  339. Bit rate                                 : 34.8 kb/s
  340. Count of elements                        : 2642
  341. Stream size                              : 26.6 MiB (0%)
  342. Title                                    : English-SDH-PGS
  343. Language                                 : English
  344. Default                                  : No
  345. Forced                                   : No

  346. Text #4
  347. ID                                       : 18
  348. Format                                   : PGS
  349. Muxing mode                              : zlib
  350. Codec ID                                 : S_HDMV/PGS
  351. Codec ID/Info                            : Picture based subtitle format used on BDs/HD-DVDs
  352. Duration                                 : 1 h 48 min
  353. Bit rate                                 : 18.7 kb/s
  354. Count of elements                        : 2656
  355. Stream size                              : 14.4 MiB (0%)
  356. Title                                    : Arabic-PGS
  357. Language                                 : Arabic
  358. Default                                  : No
  359. Forced                                   : No

  360. Text #5
  361. ID                                       : 19
  362. Format                                   : PGS
  363. Muxing mode                              : zlib
  364. Codec ID                                 : S_HDMV/PGS
  365. Codec ID/Info                            : Picture based subtitle format used on BDs/HD-DVDs
  366. Duration                                 : 1 h 52 min
  367. Bit rate                                 : 27.5 kb/s
  368. Count of elements                        : 2662
  369. Stream size                              : 22.0 MiB (0%)
  370. Title                                    : Chinese-PGS
  371. Language                                 : Chinese
  372. Default                                  : No
  373. Forced                                   : No

  374. Text #6
  375. ID                                       : 20
  376. Format                                   : PGS
  377. Muxing mode                              : zlib
  378. Codec ID                                 : S_HDMV/PGS
  379. Codec ID/Info                            : Picture based subtitle format used on BDs/HD-DVDs
  380. Duration                                 : 1 h 48 min
  381. Bit rate                                 : 22.0 kb/s
  382. Count of elements                        : 1622
  383. Stream size                              : 17.0 MiB (0%)
  384. Title                                    : Danish-PGS
  385. Language                                 : Danish
  386. Default                                  : No
  387. Forced                                   : No

  388. Text #7
  389. ID                                       : 21
  390. Format                                   : PGS
  391. Muxing mode                              : zlib
  392. Codec ID                                 : S_HDMV/PGS
  393. Codec ID/Info                            : Picture based subtitle format used on BDs/HD-DVDs
  394. Duration                                 : 1 h 48 min
  395. Bit rate                                 : 22.9 kb/s
  396. Count of elements                        : 1582
  397. Stream size                              : 17.7 MiB (0%)
  398. Title                                    : Dutch-PGS
  399. Language                                 : Dutch
  400. Default                                  : No
  401. Forced                                   : No

  402. Text #8
  403. ID                                       : 22
  404. Format                                   : PGS
  405. Muxing mode                              : zlib
  406. Codec ID                                 : S_HDMV/PGS
  407. Codec ID/Info                            : Picture based subtitle format used on BDs/HD-DVDs
  408. Duration                                 : 1 h 48 min
  409. Bit rate                                 : 27.0 kb/s
  410. Count of elements                        : 2016
  411. Stream size                              : 20.8 MiB (0%)
  412. Title                                    : Finnish-PGS
  413. Language                                 : Finnish
  414. Default                                  : No
  415. Forced                                   : No

  416. Text #9
  417. ID                                       : 23
  418. Format                                   : PGS
  419. Muxing mode                              : zlib
  420. Codec ID                                 : S_HDMV/PGS
  421. Codec ID/Info                            : Picture based subtitle format used on BDs/HD-DVDs
  422. Duration                                 : 1 h 52 min
  423. Bit rate                                 : 27.9 kb/s
  424. Count of elements                        : 2570
  425. Stream size                              : 22.4 MiB (0%)
  426. Title                                    : French-PGS
  427. Language                                 : French
  428. Default                                  : No
  429. Forced                                   : No

  430. Text #10
  431. ID                                       : 24
  432. Format                                   : PGS
  433. Muxing mode                              : zlib
  434. Codec ID                                 : S_HDMV/PGS
  435. Codec ID/Info                            : Picture based subtitle format used on BDs/HD-DVDs
  436. Duration                                 : 1 h 51 min
  437. Bit rate                                 : 317 b/s
  438. Count of elements                        : 22
  439. Stream size                              : 260 KiB (0%)
  440. Title                                    : French-FORCED-PGS
  441. Language                                 : French
  442. Default                                  : No
  443. Forced                                   : No

  444. Text #11
  445. ID                                       : 25
  446. Format                                   : PGS
  447. Muxing mode                              : zlib
  448. Codec ID                                 : S_HDMV/PGS
  449. Codec ID/Info                            : Picture based subtitle format used on BDs/HD-DVDs
  450. Duration                                 : 1 h 52 min
  451. Bit rate                                 : 35.9 kb/s
  452. Count of elements                        : 2666
  453. Stream size                              : 28.8 MiB (0%)
  454. Title                                    : German-PGS
  455. Language                                 : German
  456. Default                                  : No
  457. Forced                                   : No

  458. Text #12
  459. ID                                       : 26
  460. Format                                   : PGS
  461. Muxing mode                              : zlib
  462. Codec ID                                 : S_HDMV/PGS
  463. Codec ID/Info                            : Picture based subtitle format used on BDs/HD-DVDs
  464. Duration                                 : 1 h 51 min
  465. Bit rate                                 : 411 b/s
  466. Count of elements                        : 32
  467. Stream size                              : 336 KiB (0%)
  468. Title                                    : German-FORCED-PGS
  469. Language                                 : German
  470. Default                                  : No
  471. Forced                                   : No

  472. Text #13
  473. ID                                       : 27
  474. Format                                   : PGS
  475. Muxing mode                              : zlib
  476. Codec ID                                 : S_HDMV/PGS
  477. Codec ID/Info                            : Picture based subtitle format used on BDs/HD-DVDs
  478. Duration                                 : 1 h 52 min
  479. Bit rate                                 : 34.5 kb/s
  480. Count of elements                        : 2676
  481. Stream size                              : 27.7 MiB (0%)
  482. Title                                    : Icelandic-PGS
  483. Language                                 : Icelandic
  484. Default                                  : No
  485. Forced                                   : No

  486. Text #14
  487. ID                                       : 28
  488. Format                                   : PGS
  489. Muxing mode                              : zlib
  490. Codec ID                                 : S_HDMV/PGS
  491. Codec ID/Info                            : Picture based subtitle format used on BDs/HD-DVDs
  492. Duration                                 : 1 h 52 min
  493. Bit rate                                 : 30.6 kb/s
  494. Count of elements                        : 2668
  495. Stream size                              : 24.5 MiB (0%)
  496. Title                                    : Italian-PGS
  497. Language                                 : Italian
  498. Default                                  : No
  499. Forced                                   : No

  500. Text #15
  501. ID                                       : 29
  502. Format                                   : PGS
  503. Muxing mode                              : zlib
  504. Codec ID                                 : S_HDMV/PGS
  505. Codec ID/Info                            : Picture based subtitle format used on BDs/HD-DVDs
  506. Duration                                 : 1 h 51 min
  507. Bit rate                                 : 482 b/s
  508. Count of elements                        : 36
  509. Stream size                              : 394 KiB (0%)
  510. Title                                    : Italian-FORCED-PGS
  511. Language                                 : Italian
  512. Default                                  : No
  513. Forced                                   : No

  514. Text #16
  515. ID                                       : 30
  516. Format                                   : PGS
  517. Muxing mode                              : zlib
  518. Codec ID                                 : S_HDMV/PGS
  519. Codec ID/Info                            : Picture based subtitle format used on BDs/HD-DVDs
  520. Duration                                 : 1 h 52 min
  521. Bit rate                                 : 22.7 kb/s
  522. Count of elements                        : 2686
  523. Stream size                              : 18.2 MiB (0%)
  524. Title                                    : Korean-PGS
  525. Language                                 : Korean
  526. Default                                  : No
  527. Forced                                   : No

  528. Text #17
  529. ID                                       : 31
  530. Format                                   : PGS
  531. Muxing mode                              : zlib
  532. Codec ID                                 : S_HDMV/PGS
  533. Codec ID/Info                            : Picture based subtitle format used on BDs/HD-DVDs
  534. Duration                                 : 1 h 48 min
  535. Bit rate                                 : 20.9 kb/s
  536. Count of elements                        : 1612
  537. Stream size                              : 16.1 MiB (0%)
  538. Title                                    : Norwegian-PGS
  539. Language                                 : Norwegian
  540. Default                                  : No
  541. Forced                                   : No

  542. Text #18
  543. ID                                       : 32
  544. Format                                   : PGS
  545. Muxing mode                              : zlib
  546. Codec ID                                 : S_HDMV/PGS
  547. Codec ID/Info                            : Picture based subtitle format used on BDs/HD-DVDs
  548. Duration                                 : 1 h 48 min
  549. Bit rate                                 : 28.6 kb/s
  550. Count of elements                        : 2428
  551. Stream size                              : 22.1 MiB (0%)
  552. Title                                    : Portuguese-PGS
  553. Language                                 : Portuguese
  554. Default                                  : No
  555. Forced                                   : No

  556. Text #19
  557. ID                                       : 33
  558. Format                                   : PGS
  559. Muxing mode                              : zlib
  560. Codec ID                                 : S_HDMV/PGS
  561. Codec ID/Info                            : Picture based subtitle format used on BDs/HD-DVDs
  562. Duration                                 : 1 h 52 min
  563. Bit rate                                 : 24.8 kb/s
  564. Count of elements                        : 2666
  565. Stream size                              : 19.9 MiB (0%)
  566. Title                                    : Spanish-PGS
  567. Language                                 : Spanish
  568. Default                                  : No
  569. Forced                                   : No

  570. Text #20
  571. ID                                       : 34
  572. Format                                   : PGS
  573. Muxing mode                              : zlib
  574. Codec ID                                 : S_HDMV/PGS
  575. Codec ID/Info                            : Picture based subtitle format used on BDs/HD-DVDs
  576. Duration                                 : 1 h 50 min
  577. Bit rate                                 : 154 b/s
  578. Count of elements                        : 16
  579. Stream size                              : 125 KiB (0%)
  580. Title                                    : Spanish-FORCED-PGS
  581. Language                                 : Spanish
  582. Default                                  : No
  583. Forced                                   : No

  584. Text #21
  585. ID                                       : 35
  586. Format                                   : PGS
  587. Muxing mode                              : zlib
  588. Codec ID                                 : S_HDMV/PGS
  589. Codec ID/Info                            : Picture based subtitle format used on BDs/HD-DVDs
  590. Duration                                 : 1 h 48 min
  591. Bit rate                                 : 29.4 kb/s
  592. Count of elements                        : 2386
  593. Stream size                              : 22.7 MiB (0%)
  594. Title                                    : Spanish-PGS
  595. Language                                 : Spanish
  596. Default                                  : No
  597. Forced                                   : No

  598. Text #22
  599. ID                                       : 36
  600. Format                                   : PGS
  601. Muxing mode                              : zlib
  602. Codec ID                                 : S_HDMV/PGS
  603. Codec ID/Info                            : Picture based subtitle format used on BDs/HD-DVDs
  604. Duration                                 : 1 h 52 min
  605. Bit rate                                 : 21.2 kb/s
  606. Count of elements                        : 1592
  607. Stream size                              : 17.0 MiB (0%)
  608. Title                                    : Swedish-PGS
  609. Language                                 : Swedish
  610. Default                                  : No
  611. Forced                                   : No

  612. Text #23
  613. ID                                       : 37
  614. Format                                   : PGS
  615. Muxing mode                              : zlib
  616. Codec ID                                 : S_HDMV/PGS
  617. Codec ID/Info                            : Picture based subtitle format used on BDs/HD-DVDs
  618. Duration                                 : 1 h 52 min
  619. Bit rate                                 : 26.1 kb/s
  620. Count of elements                        : 2660
  621. Stream size                              : 20.9 MiB (0%)
  622. Title                                    : Thai-PGS
  623. Language                                 : Thai
  624. Default                                  : No
  625. Forced                                   : No

  626. Text #24
  627. ID                                       : 38
  628. Format                                   : PGS
  629. Muxing mode                              : zlib
  630. Codec ID                                 : S_HDMV/PGS
  631. Codec ID/Info                            : Picture based subtitle format used on BDs/HD-DVDs
  632. Duration                                 : 1 h 52 min
  633. Bit rate                                 : 28.5 kb/s
  634. Count of elements                        : 2644
  635. Stream size                              : 22.9 MiB (0%)
  636. Title                                    : Turkish-PGS
  637. Language                                 : Turkish
  638. Default                                  : No
  639. Forced                                   : No

  640. Text #25
  641. ID                                       : 39
  642. Format                                   : PGS
  643. Muxing mode                              : zlib
  644. Codec ID                                 : S_HDMV/PGS
  645. Codec ID/Info                            : Picture based subtitle format used on BDs/HD-DVDs
  646. Duration                                 : 1 h 51 min
  647. Bit rate                                 : 438 b/s
  648. Count of elements                        : 38
  649. Stream size                              : 358 KiB (0%)
  650. Title                                    : Turkish-FORCED-PGS
  651. Language                                 : Turkish
  652. Default                                  : No
  653. Forced                                   : No

  654. Menu
  655. 00:00:00.000                             : en:Chapter 01
  656. 00:06:55.873                             : en:Chapter 02
  657. 00:14:06.470                             : en:Chapter 03
  658. 00:20:13.837                             : en:Chapter 04
  659. 00:28:58.862                             : en:Chapter 05
  660. 00:37:52.395                             : en:Chapter 06
  661. 00:41:19.768                             : en:Chapter 07
  662. 00:49:49.152                             : en:Chapter 08
  663. 00:55:08.346                             : en:Chapter 09
  664. 01:01:43.116                             : en:Chapter 10
  665. 01:11:42.631                             : en:Chapter 11
  666. 01:17:50.749                             : en:Chapter 12
  667. 01:25:58.319                             : en:Chapter 13
  668. 01:32:34.090                             : en:Chapter 14
  669. 01:36:02.715                             : en:Chapter 15
  670. 01:42:23.637                             : en:Chapter 16
复制代码

街区男孩/头巾少年 Boyz.n.the.Hood.1991.2160p.BluRay.REMUX.HEVC.DTS-HD.MA.TrueHD.7.1.Atmos-FGT 51.94GB-2.png 街区男孩/头巾少年 Boyz.n.the.Hood.1991.2160p.BluRay.REMUX.HEVC.DTS-HD.MA.TrueHD.7.1.Atmos-FGT 51.94GB-3.png 街区男孩/头巾少年 Boyz.n.the.Hood.1991.2160p.BluRay.REMUX.HEVC.DTS-HD.MA.TrueHD.7.1.Atmos-FGT 51.94GB-4.png






回复

使用道具 举报

蓝光币
862
发表于 2020-2-1 14:47:38 | 显示全部楼层
谢谢楼主无私分享。
回复 支持 反对

使用道具 举报

蓝光币
1196
发表于 2020-2-2 11:28:36 | 显示全部楼层
进来看看,多谢
回复 支持 反对

使用道具 举报

蓝光币
459
发表于 2020-2-3 23:30:31 | 显示全部楼层

这东西我收了!谢谢楼主!蓝光电影网真好!
回复 支持 反对

使用道具 举报

懒得打字嘛,点击右侧快捷回复 【右侧内容,后台自定义】
您需要登录后才可以回帖 登录 | 立即加入

本版积分规则

Archiver|小黑屋| 蓝光电影网 |网站地图

Copyright © 2021 Comsenz Inc. Powered by 蓝光电影网

蓝光电影网

本站内容由用户自主分享和转载自互联网,转载目的在于传递更多信息,并不代表本网赞同其观点和对其真实性负责。

如有侵权、违反国家法律政策行为,请联系我们,我们会第一时间及时清除和处理!

举报反馈邮箱:[email protected]

快速回复 返回顶部 返回列表