找回密码

蓝光电影网

查看: 1065|回复: 4

[2160p-WEB] 比佛利山超级警探3/妙探出差3 Beverly.Hills.Cop.III.1994.2160p.AMZN.WEBRip.DDP5.1.x264-AJP69 31.84GB

[复制链接]
蓝光币
1022
发表于 2020-2-1 14:14:24 | 显示全部楼层 |阅读模式
比佛利山超级警探3/妙探出差3 Beverly.Hills.Cop.III.1994.2160p.AMZN.WEBRip.DDP5.1.x264-AJP69 31.84GB-1.png

译  名 比佛利山超级警探3 / 妙探出差3 / 妙探出差第三集 / 妙探出更第三集 / 比佛利山警探3 / 轰隆炮3
片  名 Beverly Hills Cop III
年  代 1994
产  地 美国
类  别 笑剧 / 行动 / 惊悚 / 犯罪
语  言 英语
上映日期 1994-05-25
IMDb评分  5.6/10 from 72661 users
IMDb链接  https://www.imdb.com/title/tt0109254
豆瓣评分 6.2/10 from 754 users
豆瓣链接 https://movie.douban.com/subject/1301785/
片  长 104 分钟
导  演 John Landis
编  剧 Steven E. de Souza / Danilo Bach / Daniel Petrie Jr.
主  演 Eddie Murphy
       Jon Tenney
       Joey Travolta
       Eugene Collier


标  签 笑剧 | 美国 | 行动 | 美国电影 | 1994 | 警匪 | EddieMurphy | 搞笑

简  介  

  我们的变态规干探艾索(艾迪?墨菲 Eddie Murphy 饰)又返来了!艾索身为底特律的刑警,却三番四次跑到了洛山矶去破案,此次也不破例。艾索被派遣观察一宗谋杀案,他发现了案中的连续串线索,顺藤摸瓜之下终极追踪到了洛山矶比佛利山上一个大型游乐场的仆人。
  回到久违的洛山矶,艾索固然要找到前两集的最好拍档――洛山矶刑警比利(祖德?莱茵霍尔德 Judge Reinhold 饰)。因而比利和艾索两人深入虎穴,间接来到了游乐场观察。没想到的是,游乐场仆人在这里设备了重重障碍,面临他们的将是连场恶斗!
  1. Video
  2. ID                                       : 1
  3. Format                                   : AVC
  4. Format/Info                              : Advanced Video Codec
  5. Format profile                           : [email protected]
  6. Format settings                          : CABAC / 5 Ref Frames
  7. Format settings, CABAC                   : Yes
  8. Format settings, Reference frames        : 5 frames
  9. Codec ID                                 : V_MPEG4/ISO/AVC
  10. Duration                                 : 1 h 44 min
  11. Bit rate                                 : 43.1 Mb/s
  12. Width                                    : 3 840 pixels
  13. Height                                   : 2 160 pixels
  14. Display aspect ratio                     : 16:9
  15. Frame rate mode                          : Constant
  16. Frame rate                               : 23.976 (24000/1001) FPS
  17. Color space                              : YUV
  18. Chroma subsampling                       : 4:2:0
  19. Bit depth                                : 8 bits
  20. Scan type                                : Progressive
  21. Bits/(Pixel*Frame)                       : 0.217
  22. Stream size                              : 31.4 GiB (99%)
  23. Writing library                          : x264 core 155 r2901 7d0ff22
  24. Encoding settings                        : cabac=1 / ref=5 / deblock=1:-3:-3 / analyse=0x3:0x133 / me=umh / subme=10 / psy=1 / psy_rd=1.00:0.00 / mixed_ref=1 / me_range=48 / chroma_me=1 / trellis=2 / 8x8dct=1 / cqm=0 / deadzone=21,11 / fast_pskip=0 / chroma_qp_offset=-2 / threads=12 / lookahead_threads=2 / sliced_threads=0 / nr=0 / decimate=0 / interlaced=0 / bluray_compat=0 / constrained_intra=0 / bframes=8 / b_pyramid=2 / b_adapt=2 / b_bias=0 / direct=3 / weightb=1 / open_gop=0 / weightp=2 / keyint=250 / keyint_min=23 / scenecut=40 / intra_refresh=0 / rc=crf / mbtree=0 / crf=20.0 / qcomp=0.60 / qpmin=0 / qpmax=69 / qpstep=4 / ip_ratio=1.40 / pb_ratio=1.30 / aq=3:0.80
  25. Default                                  : Yes
  26. Forced                                   : No

  27. Audio
  28. ID                                       : 2
  29. Format                                   : E-AC-3
  30. Format/Info                              : Enhanced AC-3
  31. Commercial name                          : Dolby Digital Plus
  32. Codec ID                                 : A_EAC3
  33. Duration                                 : 1 h 44 min
  34. Bit rate mode                            : Constant
  35. Bit rate                                 : 640 kb/s
  36. Channel(s)                               : 6 channels
  37. Channel layout                           : L R C LFE Ls Rs
  38. Sampling rate                            : 48.0 kHz
  39. Frame rate                               : 31.250 FPS (1536 SPF)
  40. Compression mode                         : Lossy
  41. Stream size                              : 477 MiB (1%)
  42. Language                                 : English
  43. Service kind                             : Complete Main
  44. Default                                  : Yes
  45. Forced                                   : No

  46. Text #1
  47. ID                                       : 3
  48. Format                                   : UTF-8
  49. Codec ID                                 : S_TEXT/UTF8
  50. Codec ID/Info                            : UTF-8 Plain Text
  51. Duration                                 : 1 h 43 min
  52. Bit rate                                 : 58 b/s
  53. Count of elements                        : 1695
  54. Stream size                              : 44.0 KiB (0%)
  55. Language                                 : English
  56. Default                                  : No
  57. Forced                                   : No

  58. Text #2
  59. ID                                       : 4
  60. Format                                   : UTF-8
  61. Codec ID                                 : S_TEXT/UTF8
  62. Codec ID/Info                            : UTF-8 Plain Text
  63. Duration                                 : 1 h 43 min
  64. Bit rate                                 : 58 b/s
  65. Count of elements                        : 1743
  66. Stream size                              : 44.9 KiB (0%)
  67. Title                                    : SDH
  68. Language                                 : English
  69. Default                                  : No
  70. Forced                                   : No
复制代码

比佛利山超级警探3/妙探出差3 Beverly.Hills.Cop.III.1994.2160p.AMZN.WEBRip.DDP5.1.x264-AJP69 31.84GB-2.png 比佛利山超级警探3/妙探出差3 Beverly.Hills.Cop.III.1994.2160p.AMZN.WEBRip.DDP5.1.x264-AJP69 31.84GB-3.png 比佛利山超级警探3/妙探出差3 Beverly.Hills.Cop.III.1994.2160p.AMZN.WEBRip.DDP5.1.x264-AJP69 31.84GB-4.png






回复

使用道具 举报

蓝光币
746
发表于 2020-2-1 15:36:00 | 显示全部楼层
谢谢楼主无私分享。
回复 支持 反对

使用道具 举报

懒得打字嘛,点击右侧快捷回复 【右侧内容,后台自定义】
您需要登录后才可以回帖 登录 | 立即加入

本版积分规则

Archiver|小黑屋| 蓝光电影网 |网站地图

Copyright © 2021 Comsenz Inc. Powered by 蓝光电影网

蓝光电影网

本站内容由用户自主分享和转载自互联网,转载目的在于传递更多信息,并不代表本网赞同其观点和对其真实性负责。

如有侵权、违反国家法律政策行为,请联系我们,我们会第一时间及时清除和处理!

举报反馈邮箱:[email protected]

快速回复 返回顶部 返回列表