找回密码

蓝光电影网

查看: 209|回复: 0

[喜剧] 日落 Sundown.2016.1080p.WEBRip.x264-iNTENSO 8.04GB

[复制链接]
蓝光币
886
发表于 2020-2-1 14:28:31 | 显示全部楼层 |阅读模式
日落 Sundown.2016.1080p.WEBRip.x264-iNTENSO 8.04GB-1.png

译  名 日落
片  名 Sundown
年  代 2016
产  地 美国
类  别 笑剧 / 行动 / 恋爱
语  言 英语
上映日期 2016-05-13(美国)
IMDb评分  5.4/10 from 2047 users
IMDb链接  https://www.imdb.com/title/tt2381213
豆瓣评分 5.4/10 from 219 users
豆瓣链接 https://movie.douban.com/subject/20399321/
导  演 Fernando Lebrija
编  剧 Fernando Lebrija
主  演 卡米拉·贝勒 Camilla Belle
       萨拉·帕克斯顿 Sara Paxton
       泰瑞·海切尔 Teri Hatcher


标  签 笑剧 | 美国 | 恋爱 | 艳遇 | 2016 | 美国电影 | 浪漫 | 墨西哥

简  介  

  高三门生洛根和布莱克预备一个史诗般的春假他们前往巴亚尔塔港希望到美丽的异国情调的墨西哥海滩度假胜地跟他们的高中压。环抱在小小的Bikinis夜店的女孩,|的人是实在的天堂。在俱乐部|洛根爱上了一个奥秘的会议后当地美男叫加比可是实现越日上午|当祖父的劳力士腕表不见了|她以后的不但仅是他的心。工作日就衰败当人发现有代价的传家宝现在在一个强盗的要求付出三腕表的代价在手它返回。而这只是起头…
  1. Video
  2. ID                                       : 1
  3. Format                                   : AVC
  4. Format/Info                              : Advanced Video Codec
  5. Format profile                           : [email protected]
  6. Format settings                          : CABAC / 5 Ref Frames
  7. Format settings, CABAC                   : Yes
  8. Format settings, Reference frames        : 5 frames
  9. Codec ID                                 : V_MPEG4/ISO/AVC
  10. Duration                                 : 1 h 43 min
  11. Bit rate                                 : 10.2 Mb/s
  12. Width                                    : 1 920 pixels
  13. Height                                   : 808 pixels
  14. Display aspect ratio                     : 2.40:1
  15. Frame rate mode                          : Constant
  16. Frame rate                               : 23.976 (24000/1001) FPS
  17. Color space                              : YUV
  18. Chroma subsampling                       : 4:2:0
  19. Bit depth                                : 8 bits
  20. Scan type                                : Progressive
  21. Bits/(Pixel*Frame)                       : 0.275
  22. Stream size                              : 7.42 GiB (92%)
  23. Writing library                          : x264 core 150 r2833 df79067
  24. Encoding settings                        : cabac=1 / ref=5 / deblock=1:-3:-3 / analyse=0x3:0x133 / me=umh / subme=11 / psy=1 / psy_rd=1.05:0.15 / mixed_ref=1 / me_range=16 / chroma_me=1 / trellis=2 / 8x8dct=1 / cqm=0 / deadzone=21,11 / fast_pskip=0 / chroma_qp_offset=-3 / threads=12 / lookahead_threads=1 / sliced_threads=0 / nr=0 / decimate=1 / interlaced=0 / bluray_compat=0 / constrained_intra=0 / bframes=3 / b_pyramid=2 / b_adapt=2 / b_bias=0 / direct=3 / weightb=1 / open_gop=0 / weightp=2 / keyint=250 / keyint_min=24 / scenecut=40 / intra_refresh=0 / rc_lookahead=50 / rc=crf / mbtree=1 / crf=17.0 / qcomp=0.60 / qpmin=0 / qpmax=69 / qpstep=4 / ip_ratio=1.40 / aq=3:0.65
  25. Language                                 : English
  26. Default                                  : Yes
  27. Forced                                   : No

  28. Audio
  29. ID                                       : 2
  30. Format                                   : AC-3
  31. Format/Info                              : Audio Coding 3
  32. Commercial name                          : Dolby Digital
  33. Codec ID                                 : A_AC3
  34. Duration                                 : 1 h 43 min
  35. Bit rate mode                            : Constant
  36. Bit rate                                 : 640 kb/s
  37. Channel(s)                               : 6 channels
  38. Channel layout                           : L R C LFE Ls Rs
  39. Sampling rate                            : 48.0 kHz
  40. Frame rate                               : 31.250 FPS (1536 SPF)
  41. Bit depth                                : 16 bits
  42. Compression mode                         : Lossy
  43. Stream size                              : 474 MiB (6%)
  44. Language                                 : English
  45. Service kind                             : Complete Main
  46. Default                                  : Yes
  47. Forced                                   : No
复制代码

日落 Sundown.2016.1080p.WEBRip.x264-iNTENSO 8.04GB-2.png 日落 Sundown.2016.1080p.WEBRip.x264-iNTENSO 8.04GB-3.png 日落 Sundown.2016.1080p.WEBRip.x264-iNTENSO 8.04GB-4.png






回复

使用道具 举报

懒得打字嘛,点击右侧快捷回复 【右侧内容,后台自定义】
您需要登录后才可以回帖 登录 | 立即加入

本版积分规则

Archiver|小黑屋| 蓝光电影网 |网站地图

Copyright © 2021 Comsenz Inc. Powered by 蓝光电影网

蓝光电影网

本站内容由用户自主分享和转载自互联网,转载目的在于传递更多信息,并不代表本网赞同其观点和对其真实性负责。

如有侵权、违反国家法律政策行为,请联系我们,我们会第一时间及时清除和处理!

举报反馈邮箱:[email protected]

快速回复 返回顶部 返回列表