找回密码

蓝光电影网

查看: 172|回复: 0

[剧情] 黑帮大老/欲望无边 Men.of.Respect.1990.1080p.AMZN.WEBRip.DD2.0.x264-QOQ 10.60GB

[复制链接]
蓝光币
886
发表于 2020-2-1 14:35:59 | 显示全部楼层 |阅读模式
黑帮大老/愿望无边 Men.of.Respect.1990.1080p.AMZN.WEBRip.DD2.0.x264-QOQ 10.60GB-1.png

译  名 黑帮大老 / 愿望无边
片  名 Men of Respect
年  代 1990
产  地 美国
类  别 剧情 / 惊悚 / 犯罪
语  言 英语 / 西班牙语
上映日期 1991-01-18
IMDb评分  5.5/10 from 724 users
IMDb链接  https://www.imdb.com/title/tt0102432
豆瓣评分 0/10 from 0 users
豆瓣链接 https://movie.douban.com/subject/1302437/
片  长 113 分钟
导  演 William Reilly
编  剧 William Reilly / 威廉·莎士比亚 William Shakespeare
主  演 约翰·特托罗 John Turturro
       Katherine Borowitz
       丹尼斯·法里纳 Dennis Farina


标  签 美国 | 犯罪 | #电影 | G美国 | G_美国

简  介  

  一位灵媒为黑帮杀手麦克(约翰·特托罗 John Turturro)算命后告诉他,他将会成为家属黑帮的老迈,今后麦克便努力于逐一铲除故障他成功之路的人,包括掌权的大老们,然后再移祸于帮里其他的代罪羔羊;麦克铲除异已的计划原本一向停止得很顺遂,直到他不能不面临因自己和其妻两人无穷无尽的野心所酿成的结果,还有他自己知己的审判……
  1. Video
  2. ID                                       : 1
  3. Format                                   : AVC
  4. Format/Info                              : Advanced Video Codec
  5. Format profile                           : [email protected]
  6. Format settings                          : CABAC / 4 Ref Frames
  7. Format settings, CABAC                   : Yes
  8. Format settings, Reference frames        : 4 frames
  9. Codec ID                                 : V_MPEG4/ISO/AVC
  10. Duration                                 : 1 h 53 min
  11. Bit rate                                 : 13.2 Mb/s
  12. Width                                    : 1 920 pixels
  13. Height                                   : 1 080 pixels
  14. Display aspect ratio                     : 16:9
  15. Frame rate mode                          : Constant
  16. Frame rate                               : 23.976 (24000/1001) FPS
  17. Color space                              : YUV
  18. Chroma subsampling                       : 4:2:0
  19. Bit depth                                : 8 bits
  20. Scan type                                : Progressive
  21. Bits/(Pixel*Frame)                       : 0.265
  22. Stream size                              : 10.4 GiB (98%)
  23. Default                                  : Yes
  24. Forced                                   : No
  25. Color range                              : Limited
  26. Color primaries                          : BT.709
  27. Transfer characteristics                 : BT.709
  28. Matrix coefficients                      : BT.709

  29. Audio
  30. ID                                       : 2
  31. Format                                   : E-AC-3
  32. Format/Info                              : Enhanced AC-3
  33. Commercial name                          : Dolby Digital Plus
  34. Codec ID                                 : A_EAC3
  35. Duration                                 : 1 h 53 min
  36. Bit rate mode                            : Constant
  37. Bit rate                                 : 224 kb/s
  38. Channel(s)                               : 2 channels
  39. Channel layout                           : L R
  40. Sampling rate                            : 48.0 kHz
  41. Frame rate                               : 31.250 FPS (1536 SPF)
  42. Compression mode                         : Lossy
  43. Stream size                              : 181 MiB (2%)
  44. Language                                 : English
  45. Service kind                             : Complete Main
  46. Default                                  : Yes
  47. Forced                                   : No

  48. Text
  49. ID                                       : 3
  50. Format                                   : UTF-8
  51. Codec ID                                 : S_TEXT/UTF8
  52. Codec ID/Info                            : UTF-8 Plain Text
  53. Duration                                 : 1 h 49 min
  54. Bit rate                                 : 55 b/s
  55. Count of elements                        : 1601
  56. Stream size                              : 45.0 KiB (0%)
  57. Title                                    : SDH
  58. Language                                 : English
  59. Default                                  : No
  60. Forced                                   : No
复制代码

黑帮大老/愿望无边 Men.of.Respect.1990.1080p.AMZN.WEBRip.DD2.0.x264-QOQ 10.60GB-2.png 黑帮大老/愿望无边 Men.of.Respect.1990.1080p.AMZN.WEBRip.DD2.0.x264-QOQ 10.60GB-3.png 黑帮大老/愿望无边 Men.of.Respect.1990.1080p.AMZN.WEBRip.DD2.0.x264-QOQ 10.60GB-4.png







回复

使用道具 举报

懒得打字嘛,点击右侧快捷回复 【右侧内容,后台自定义】
您需要登录后才可以回帖 登录 | 立即加入

本版积分规则

Archiver|小黑屋| 蓝光电影网 |网站地图

Copyright © 2021 Comsenz Inc. Powered by 蓝光电影网

蓝光电影网

本站内容由用户自主分享和转载自互联网,转载目的在于传递更多信息,并不代表本网赞同其观点和对其真实性负责。

如有侵权、违反国家法律政策行为,请联系我们,我们会第一时间及时清除和处理!

举报反馈邮箱:[email protected]

快速回复 返回顶部 返回列表