找回密码

蓝光电影网

查看: 259|回复: 0

[喜剧] 黑暗收成 Dark.Harvest.2004.1080p.AMZN.WEBRip.DDP2.0.x264-ABM 8.46GB

[复制链接]
蓝光币
1020
发表于 2020-2-1 14:38:37 | 显示全部楼层 |阅读模式
黑暗收获 Dark.Harvest.2004.1080p.AMZN.WEBRip.DDP2.0.x264-ABM 8.46GB-1.png

译  名 黑暗收获 / Dark Harvest / 暗黑收获
片  名 Dark Harvest
年  代 2004
产  地 美国
类  别 笑剧 / 可骇
语  言 英语
上映日期 2004-04-20
IMDb评分  2.6/10 from 810 users
IMDb链接  https://www.imdb.com/title/tt0411265
豆瓣评分 0/10 from 0 users
豆瓣链接 https://movie.douban.com/subject/1483706/
片  长 USA: 88 分钟
导  演 保罗·摩尔Paul Moore
编  剧 Paul Moore
主  演 珍尼·切克Jeanie Cheek
       唐·迪吉里奥Dan DiGiulio


标  签 可骇 | 我看过的英语电影 | 我看过的电影 | 我看过的可骇电影 | 英语的标签 | 美影 | 美国 | 看电影

简  介  

  1932年,美国遭受了百年难逢一见的水灾,九个洲旱情严重,卡森市是灾区之一,但在此地,众多农民的地步由于烈日暴晒龟裂,毫无收获之时,但以利亚·贝克一家的玉米田却是一无所获,青翠一片,但接下来,以利亚和差人发生了枪战,双双灭亡,转眼数十年曩昔了,康纳从小被人收养,但他时候确切贝克家里的后代,而以利亚农庄一代一代终究传到他手,究竟这片农庄有什么奥秘,康纳会有什么成果呢?
  1. Video
  2. ID                                       : 1
  3. Format                                   : AVC
  4. Format/Info                              : Advanced Video Codec
  5. Format profile                           : [email protected]
  6. Format settings                          : CABAC / 4 Ref Frames
  7. Format settings, CABAC                   : Yes
  8. Format settings, Reference frames        : 4 frames
  9. Codec ID                                 : V_MPEG4/ISO/AVC
  10. Duration                                 : 1 h 26 min
  11. Bit rate mode                            : Variable
  12. Bit rate                                 : 13.5 Mb/s
  13. Maximum bit rate                         : 15.0 Mb/s
  14. Width                                    : 1 920 pixels
  15. Height                                   : 1 080 pixels
  16. Display aspect ratio                     : 16:9
  17. Frame rate mode                          : Constant
  18. Frame rate                               : 23.976 (24000/1001) FPS
  19. Color space                              : YUV
  20. Chroma subsampling                       : 4:2:0
  21. Bit depth                                : 8 bits
  22. Scan type                                : Progressive
  23. Bits/(Pixel*Frame)                       : 0.272
  24. Stream size                              : 8.15 GiB (96%)
  25. Language                                 : English
  26. Default                                  : Yes
  27. Forced                                   : No
  28. Color range                              : Limited
  29. Color primaries                          : BT.709
  30. Transfer characteristics                 : BT.709
  31. Matrix coefficients                      : BT.709

  32. Audio
  33. ID                                       : 2
  34. Format                                   : E-AC-3
  35. Format/Info                              : Enhanced AC-3
  36. Commercial name                          : Dolby Digital Plus
  37. Codec ID                                 : A_EAC3
  38. Duration                                 : 1 h 26 min
  39. Bit rate mode                            : Constant
  40. Bit rate                                 : 224 kb/s
  41. Channel(s)                               : 2 channels
  42. Channel layout                           : L R
  43. Sampling rate                            : 48.0 kHz
  44. Frame rate                               : 31.250 FPS (1536 SPF)
  45. Compression mode                         : Lossy
  46. Stream size                              : 138 MiB (2%)
  47. Language                                 : English
  48. Service kind                             : Complete Main
  49. Default                                  : Yes
  50. Forced                                   : No
复制代码

黑暗收获 Dark.Harvest.2004.1080p.AMZN.WEBRip.DDP2.0.x264-ABM 8.46GB-2.png 黑暗收获 Dark.Harvest.2004.1080p.AMZN.WEBRip.DDP2.0.x264-ABM 8.46GB-3.png 黑暗收获 Dark.Harvest.2004.1080p.AMZN.WEBRip.DDP2.0.x264-ABM 8.46GB-4.png






回复

使用道具 举报

懒得打字嘛,点击右侧快捷回复 【右侧内容,后台自定义】
您需要登录后才可以回帖 登录 | 立即加入

本版积分规则

Archiver|小黑屋| 蓝光电影网 |网站地图

Copyright © 2021 Comsenz Inc. Powered by 蓝光电影网

蓝光电影网

本站内容由用户自主分享和转载自互联网,转载目的在于传递更多信息,并不代表本网赞同其观点和对其真实性负责。

如有侵权、违反国家法律政策行为,请联系我们,我们会第一时间及时清除和处理!

举报反馈邮箱:[email protected]

快速回复 返回顶部 返回列表