找回密码

蓝光电影网

查看: 460|回复: 0

[冒险] 好莱坞圣诞 Christmas.in.Hollywood.2014.1080p.AMZN.WEBRip.AAC2.0.x264-TrollHD 5.82GB

[复制链接]
蓝光币
1020
发表于 2020-2-1 14:39:39 | 显示全部楼层 |阅读模式
好莱坞圣诞 Christmas.in.Hollywood.2014.1080p.AMZN.WEBRip.AAC2.0.x264-TrollHD 5.82GB-1.png

译  名 好莱坞圣诞
片  名 Christmas in Hollywood
年  代 2014
产  地 美国
类  别 冒险
语  言 英语
上映日期 2014-11-12(美国)
IMDb评分  5.1/10 from 32 users
IMDb链接  https://www.imdb.com/title/tt3326892
豆瓣评分 0/10 from 0 users
豆瓣链接 https://movie.douban.com/subject/26667885/
导  演 Bertie Higgins / Darren Dowler
编  剧 Darren Dowler / Bertie Higgins / Larry Madill
主  演 Bertie Higgins
       Jiang Zi Long
       Darren Dowler
       Jocelyn Saenz
       Roy Vongtama


简  介  

  Charlie, a young boy from China travels all the way from Shanghai to find his fathers restaurant in Hollywood is in trouble. He must convince 3 people to believe in the Spirit of Christmas in order to save his family's dream. This Multi-Award Winning, Family Christmas Comedy will bring your entire family together and includes musical numbers with Bertie Higgins, John Ford Coley and Darren Dowler.
  1. Video
  2. ID                                       : 1
  3. Format                                   : AVC
  4. Format/Info                              : Advanced Video Codec
  5. Format profile                           : [email protected]
  6. Format settings                          : CABAC / 4 Ref Frames
  7. Format settings, CABAC                   : Yes
  8. Format settings, Reference frames        : 4 frames
  9. Format settings, GOP                     : M=4, N=48
  10. Codec ID                                 : V_MPEG4/ISO/AVC
  11. Duration                                 : 1 h 24 min
  12. Bit rate mode                            : Constant
  13. Bit rate                                 : 10 000 kb/s
  14. Width                                    : 1 920 pixels
  15. Height                                   : 1 080 pixels
  16. Display aspect ratio                     : 16:9
  17. Frame rate mode                          : Constant
  18. Frame rate                               : 23.976 (24000/1001) FPS
  19. Color space                              : YUV
  20. Chroma subsampling                       : 4:2:0
  21. Bit depth                                : 8 bits
  22. Scan type                                : Progressive
  23. Bits/(Pixel*Frame)                       : 0.201
  24. Stream size                              : 5.74 GiB (99%)
  25. Language                                 : English
  26. Default                                  : Yes
  27. Forced                                   : No
  28. Color range                              : Limited
  29. Color primaries                          : BT.709
  30. Transfer characteristics                 : BT.709
  31. Matrix coefficients                      : BT.709

  32. Audio
  33. ID                                       : 2
  34. Format                                   : AAC LC
  35. Format/Info                              : Advanced Audio Codec Low Complexity
  36. Codec ID                                 : A_AAC-2
  37. Duration                                 : 1 h 24 min
  38. Bit rate                                 : 125 kb/s
  39. Channel(s)                               : 2 channels
  40. Channel layout                           : L R
  41. Sampling rate                            : 48.0 kHz
  42. Frame rate                               : 46.875 FPS (1024 SPF)
  43. Compression mode                         : Lossy
  44. Stream size                              : 75.7 MiB (1%)
  45. Language                                 : English
  46. Default                                  : Yes
  47. Forced                                   : No

  48. Text
  49. ID                                       : 3
  50. Format                                   : UTF-8
  51. Codec ID                                 : S_TEXT/UTF8
  52. Codec ID/Info                            : UTF-8 Plain Text
  53. Duration                                 : 1 h 23 min
  54. Bit rate                                 : 71 b/s
  55. Count of elements                        : 1563
  56. Stream size                              : 43.6 KiB (0%)
  57. Title                                    : English (SDH)
  58. Language                                 : English
  59. Default                                  : No
  60. Forced                                   : No
复制代码

好莱坞圣诞 Christmas.in.Hollywood.2014.1080p.AMZN.WEBRip.AAC2.0.x264-TrollHD 5.82GB-2.png 好莱坞圣诞 Christmas.in.Hollywood.2014.1080p.AMZN.WEBRip.AAC2.0.x264-TrollHD 5.82GB-3.png 好莱坞圣诞 Christmas.in.Hollywood.2014.1080p.AMZN.WEBRip.AAC2.0.x264-TrollHD 5.82GB-4.png






回复

使用道具 举报

懒得打字嘛,点击右侧快捷回复 【右侧内容,后台自定义】
您需要登录后才可以回帖 登录 | 立即加入

本版积分规则

Archiver|小黑屋| 蓝光电影网 |网站地图

Copyright © 2021 Comsenz Inc. Powered by 蓝光电影网

蓝光电影网

本站内容由用户自主分享和转载自互联网,转载目的在于传递更多信息,并不代表本网赞同其观点和对其真实性负责。

如有侵权、违反国家法律政策行为,请联系我们,我们会第一时间及时清除和处理!

举报反馈邮箱:[email protected]

快速回复 返回顶部 返回列表