找回密码

蓝光电影网

查看: 222|回复: 0

[剧情] 余债未偿 The.Delinquent.Season.2017.1080p.WEB-DL.DD5.1.H264-FGT 3.96GB

[复制链接]
蓝光币
886
发表于 2020-2-1 14:42:28 | 显示全部楼层 |阅读模式
余债未偿 The.Delinquent.Season.2017.1080p.WEB-DL.DD5.1.H264-FGT 3.96GB-1.png

译  名 余债未偿
片  名 The Delinquent Season
年  代 2018
产  地 爱尔兰
类  别 剧情 / 恋爱
语  言 英语
上映日期 2018-03-03(都柏林电影节) / 2018-04-27(爱尔兰)
IMDb评分  6.3/10 from 981 users
IMDb链接  https://www.imdb.com/title/tt6164762
豆瓣评分 6.6/10 from 75 users
豆瓣链接 https://movie.douban.com/subject/27192348/
片  长 103分钟
导  演 Mark O'Rowe
编  剧 Mark O'Rowe
主  演 基里安·墨菲 Cillian Murphy
       安德鲁·斯科特 Andrew Scott
       伊娃·柏西斯托 Eva Birthistle
       凯瑟琳·沃克 Catherine Walker
       Lydia McGuinness


标  签 CillianMurphy | 爱尔兰 | 剧情 | AndrewScott | 婚姻 | 安德鲁·斯科特 | 电影 | 恋爱

简  介  

  The Delinquent Season is a tense drama which revolves around two couples in suburban Dublin. Although all seems fine on the surface, cracks in both relationships come to light when, one night at dinner, Chris lashes out at his wife, Yvonne. The film explores both love and loss and ultimately asks the question, How well can any of us really know each other?
  1. Video
  2. ID                                       : 1
  3. Format                                   : AVC
  4. Format/Info                              : Advanced Video Codec
  5. Format profile                           : [email protected]
  6. Format settings                          : CABAC / 4 Ref Frames
  7. Format settings, CABAC                   : Yes
  8. Format settings, Reference frames        : 4 frames
  9. Codec ID                                 : V_MPEG4/ISO/AVC
  10. Duration                                 : 1 h 43 min
  11. Bit rate                                 : 5 076 kb/s
  12. Width                                    : 1 912 pixels
  13. Height                                   : 1 028 pixels
  14. Display aspect ratio                     : 1.85:1
  15. Frame rate mode                          : Constant
  16. Frame rate                               : 24.000 FPS
  17. Color space                              : YUV
  18. Chroma subsampling                       : 4:2:0
  19. Bit depth                                : 8 bits
  20. Scan type                                : Progressive
  21. Bits/(Pixel*Frame)                       : 0.108
  22. Stream size                              : 3.68 GiB (93%)
  23. Title                                    : The.Delinquent.Season.2017.1080p.WEB-DL.DD5.1.H264-FGT
  24. Language                                 : English
  25. Default                                  : Yes
  26. Forced                                   : No
  27. Color range                              : Limited
  28. Color primaries                          : BT.709
  29. Transfer characteristics                 : BT.709
  30. Matrix coefficients                      : BT.709

  31. Audio
  32. ID                                       : 2
  33. Format                                   : AC-3
  34. Format/Info                              : Audio Coding 3
  35. Commercial name                          : Dolby Digital
  36. Codec ID                                 : A_AC3
  37. Duration                                 : 1 h 43 min
  38. Bit rate mode                            : Constant
  39. Bit rate                                 : 384 kb/s
  40. Channel(s)                               : 6 channels
  41. Channel layout                           : L R C LFE Ls Rs
  42. Sampling rate                            : 48.0 kHz
  43. Frame rate                               : 31.250 FPS (1536 SPF)
  44. Compression mode                         : Lossy
  45. Stream size                              : 285 MiB (7%)
  46. Title                                    : The.Delinquent.Season.2017.1080p.WEB-DL.DD5.1.H264-FGT
  47. Language                                 : English
  48. Service kind                             : Complete Main
  49. Default                                  : Yes
  50. Forced                                   : No

  51. Menu
  52. 00:00:00.000                             : en:1
  53. 00:08:30.291                             : en:2
  54. 00:18:43.832                             : en:3
  55. 00:29:05.582                             : en:4
  56. 00:41:14.915                             : en:5
  57. 00:49:17.665                             : en:6
  58. 01:00:02.540                             : en:7
  59. 01:09:38.998                             : en:8
  60. 01:21:28.831                             : en:9
  61. 01:29:44.122                             : en:10
复制代码

余债未偿 The.Delinquent.Season.2017.1080p.WEB-DL.DD5.1.H264-FGT 3.96GB-1.png 余债未偿 The.Delinquent.Season.2017.1080p.WEB-DL.DD5.1.H264-FGT 3.96GB-3.png 余债未偿 The.Delinquent.Season.2017.1080p.WEB-DL.DD5.1.H264-FGT 3.96GB-2.png






回复

使用道具 举报

懒得打字嘛,点击右侧快捷回复 【右侧内容,后台自定义】
您需要登录后才可以回帖 登录 | 立即加入

本版积分规则

Archiver|小黑屋| 蓝光电影网 |网站地图

Copyright © 2021 Comsenz Inc. Powered by 蓝光电影网

蓝光电影网

本站内容由用户自主分享和转载自互联网,转载目的在于传递更多信息,并不代表本网赞同其观点和对其真实性负责。

如有侵权、违反国家法律政策行为,请联系我们,我们会第一时间及时清除和处理!

举报反馈邮箱:[email protected]

快速回复 返回顶部 返回列表