找回密码

蓝光电影网

查看: 262|回复: 0

[剧情] 陌生的处境 Strange.Weather.2016.1080p.WEB-DL.DD5.1.H264-FGT 3.54GB

[复制链接]
蓝光币
953
发表于 2020-2-1 14:44:50 | 显示全部楼层 |阅读模式
陌生的处境 Strange.Weather.2016.1080p.WEB-DL.DD5.1.H264-FGT 3.54GB-1.png

译  名 陌生的处境
片  名 Strange Weather
年  代 2016
产  地 美国
类  别 剧情
语  言 英语
IMDb评分  5.9/10 from 904 users
IMDb链接  https://www.imdb.com/title/tt5205210
豆瓣评分 0/10 from 0 users
豆瓣链接 https://movie.douban.com/subject/26834621/
片  长 92分钟
导  演 Katherine Dieckmann
编  剧 Katherine Dieckmann
主  演 霍利·亨特 Holly Hunter
       凯莉·库恩 Carrie Coon
       金·寇兹 Kim Coates
       格伦妮·海德利 Glenne Headly
       艾米丽·皮奇 Emily Peachey
       Ritchie Montgomery
       Allene Quincy
       Johnny McPhail
       Susan Gallagher
       Shane Jacobsen
       Ted Ferguson
       Andrene Ward-Hammond
       Kim Collins
       Choppy Guillotte
       Walker Babington


标  签 美国电影 | 剧情 | 公路 | 亲情 | 2017 | 2016 | 美国 | 21c

简  介  

  A poignant, lyrical drama about a mother (Hunter), who, in an effort to deal with the grief over the death of her son, travels the back roads of the deep south to settle a score. A story of grief and forgiveness, of looking inward to find a way to move forward.
  1. Video
  2. ID                                       : 1
  3. Format                                   : AVC
  4. Format/Info                              : Advanced Video Codec
  5. Format profile                           : [email protected]
  6. Format settings                          : CABAC / 4 Ref Frames
  7. Format settings, CABAC                   : Yes
  8. Format settings, Reference frames        : 4 frames
  9. Codec ID                                 : V_MPEG4/ISO/AVC
  10. Duration                                 : 1 h 31 min
  11. Bit rate                                 : 5 071 kb/s
  12. Width                                    : 1 916 pixels
  13. Height                                   : 1 040 pixels
  14. Display aspect ratio                     : 1.85:1
  15. Frame rate mode                          : Constant
  16. Frame rate                               : 23.976 (24000/1001) FPS
  17. Color space                              : YUV
  18. Chroma subsampling                       : 4:2:0
  19. Bit depth                                : 8 bits
  20. Scan type                                : Progressive
  21. Bits/(Pixel*Frame)                       : 0.106
  22. Stream size                              : 3.23 GiB (91%)
  23. Title                                    : Strange.Weather.2016.1080p.WEB-DL.DD5.1.H264-FGT
  24. Language                                 : English
  25. Default                                  : Yes
  26. Forced                                   : No
  27. Color range                              : Limited
  28. Color primaries                          : BT.709
  29. Transfer characteristics                 : BT.709
  30. Matrix coefficients                      : BT.709

  31. Audio
  32. ID                                       : 2
  33. Format                                   : AC-3
  34. Format/Info                              : Audio Coding 3
  35. Commercial name                          : Dolby Digital
  36. Codec ID                                 : A_AC3
  37. Duration                                 : 1 h 31 min
  38. Bit rate mode                            : Constant
  39. Bit rate                                 : 384 kb/s
  40. Channel(s)                               : 6 channels
  41. Channel layout                           : L R C LFE Ls Rs
  42. Sampling rate                            : 48.0 kHz
  43. Frame rate                               : 31.250 FPS (1536 SPF)
  44. Compression mode                         : Lossy
  45. Stream size                              : 250 MiB (7%)
  46. Title                                    : Strange.Weather.2016.1080p.WEB-DL.DD5.1.H264-FGT
  47. Language                                 : English
  48. Service kind                             : Complete Main
  49. Default                                  : Yes
  50. Forced                                   : No

  51. Text
  52. ID                                       : 3
  53. Format                                   : UTF-8
  54. Codec ID                                 : S_TEXT/UTF8
  55. Codec ID/Info                            : UTF-8 Plain Text
  56. Language                                 : English
  57. Default                                  : Yes
  58. Forced                                   : No

  59. Menu
  60. 00:00:00.000                             : en:Chapter 1
  61. 00:11:48.000                             : en:Chapter 2
  62. 00:21:46.000                             : en:Chapter 3
  63. 00:32:09.000                             : en:Chapter 4
  64. 00:41:43.000                             : en:Chapter 5
  65. 00:50:47.000                             : en:Chapter 6
  66. 01:04:48.000                             : en:Chapter 7
  67. 01:19:06.000                             : en:Chapter 8
  68. 01:25:30.000                             : en:Chapter 9
复制代码

陌生的处境 Strange.Weather.2016.1080p.WEB-DL.DD5.1.H264-FGT 3.54GB-2.png 陌生的处境 Strange.Weather.2016.1080p.WEB-DL.DD5.1.H264-FGT 3.54GB-3.png 陌生的处境 Strange.Weather.2016.1080p.WEB-DL.DD5.1.H264-FGT 3.54GB-4.png 陌生的处境 Strange.Weather.2016.1080p.WEB-DL.DD5.1.H264-FGT 3.54GB-5.png 陌生的处境 Strange.Weather.2016.1080p.WEB-DL.DD5.1.H264-FGT 3.54GB-6.png 陌生的处境 Strange.Weather.2016.1080p.WEB-DL.DD5.1.H264-FGT 3.54GB-7.png






回复

使用道具 举报

懒得打字嘛,点击右侧快捷回复 【右侧内容,后台自定义】
您需要登录后才可以回帖 登录 | 立即加入

本版积分规则

Archiver|小黑屋| 蓝光电影网 |网站地图

Copyright © 2021 Comsenz Inc. Powered by 蓝光电影网

蓝光电影网

本站内容由用户自主分享和转载自互联网,转载目的在于传递更多信息,并不代表本网赞同其观点和对其真实性负责。

如有侵权、违反国家法律政策行为,请联系我们,我们会第一时间及时清除和处理!

举报反馈邮箱:[email protected]

快速回复 返回顶部 返回列表