找回密码

蓝光电影网

查看: 215|回复: 0

[剧情] 死亡推手/真藥我的命 Pushing.Dead.2016.1080p.WEB-DL.DD5.1.H264-FGT 3.87GB

[复制链接]
蓝光币
1020
发表于 2020-2-1 14:48:40 | 显示全部楼层 |阅读模式
灭亡推手/真藥我的命 Pushing.Dead.2016.1080p.WEB-DL.DD5.1.H264-FGT 3.87GB-1.png

译  名 灭亡推手 / 真藥我的命(台)
片  名 Pushing Dead
年  代 2016
产  地 美国
类  别 剧情 / 同性
语  言 英语
上映日期 2016-09-29(圣地亚哥电影节)
IMDb评分  6.5/10 from 268 users
IMDb链接  https://www.imdb.com/title/tt4572984
豆瓣评分 0/10 from 0 users
豆瓣链接 https://movie.douban.com/subject/26838374/
片  长 108分钟
导  演 Tom E. Brown
编  剧 Tom E. Brown
主  演 詹姆斯·罗德 James Roday
       罗宾·薇格特 Robin Weigert
       丹尼·格洛弗 Danny Glover


标  签 美国 | 药物 | 艾滋 | 灭亡 | 斗争 | 2016 | 阳性 | 药店

简  介  

  When a struggling writer, HIV positive for 20+ years, accidentally deposits a $100 birthday check, he is dropped from his health plan for earning too much. In this new era of sort-of universal care, can he take on a helpless bureaucracy or come up with $3000 a month to buy meds on his own?
  1. Video
  2. ID                                       : 1
  3. Format                                   : AVC
  4. Format/Info                              : Advanced Video Codec
  5. Format profile                           : [email protected]
  6. Format settings                          : CABAC / 5 Ref Frames
  7. Format settings, CABAC                   : Yes
  8. Format settings, Reference frames        : 5 frames
  9. Codec ID                                 : V_MPEG4/ISO/AVC
  10. Duration                                 : 1 h 50 min
  11. Bit rate                                 : 4 621 kb/s
  12. Width                                    : 1 908 pixels
  13. Height                                   : 796 pixels
  14. Display aspect ratio                     : 2.40:1
  15. Frame rate mode                          : Constant
  16. Frame rate                               : 23.976 (24000/1001) FPS
  17. Color space                              : YUV
  18. Chroma subsampling                       : 4:2:0
  19. Bit depth                                : 8 bits
  20. Scan type                                : Progressive
  21. Bits/(Pixel*Frame)                       : 0.127
  22. Stream size                              : 3.57 GiB (92%)
  23. Title                                    : Pushing.Dead.2016.1080p.WEB-DL.DD5.1.H.264-FGT
  24. Language                                 : English
  25. Default                                  : Yes
  26. Forced                                   : No
  27. Color range                              : Limited
  28. Color primaries                          : BT.709
  29. Transfer characteristics                 : BT.709
  30. Matrix coefficients                      : BT.709

  31. Audio
  32. ID                                       : 2
  33. Format                                   : AC-3
  34. Format/Info                              : Audio Coding 3
  35. Commercial name                          : Dolby Digital
  36. Codec ID                                 : A_AC3
  37. Duration                                 : 1 h 50 min
  38. Bit rate mode                            : Constant
  39. Bit rate                                 : 384 kb/s
  40. Channel(s)                               : 6 channels
  41. Channel layout                           : L R C LFE Ls Rs
  42. Sampling rate                            : 48.0 kHz
  43. Frame rate                               : 31.250 FPS (1536 SPF)
  44. Compression mode                         : Lossy
  45. Stream size                              : 304 MiB (8%)
  46. Title                                    : Pushing.Dead.2016.1080p.WEB-DL.DD5.1.H.264-FGT
  47. Language                                 : English
  48. Service kind                             : Complete Main
  49. Default                                  : Yes
  50. Forced                                   : No

  51. Text
  52. ID                                       : 3
  53. Format                                   : UTF-8
  54. Codec ID                                 : S_TEXT/UTF8
  55. Codec ID/Info                            : UTF-8 Plain Text
  56. Duration                                 : 1 h 46 min
  57. Bit rate                                 : 64 b/s
  58. Count of elements                        : 1960
  59. Stream size                              : 50.4 KiB (0%)
  60. Language                                 : English
  61. Default                                  : No
  62. Forced                                   : No

  63. Menu
  64. 00:00:00.000                             : en:1
  65. 00:10:05.000                             : en:2
  66. 00:22:40.000                             : en:3
  67. 00:33:50.000                             : en:4
  68. 00:46:07.000                             : en:5
  69. 00:55:31.000                             : en:6
  70. 01:07:09.000                             : en:7
  71. 01:18:57.000                             : en:8
  72. 01:28:59.000                             : en:9
  73. 01:38:41.000                             : en:10
  74. 01:46:38.000                             : en:11
复制代码

灭亡推手/真藥我的命 Pushing.Dead.2016.1080p.WEB-DL.DD5.1.H264-FGT 3.87GB-2.png 灭亡推手/真藥我的命 Pushing.Dead.2016.1080p.WEB-DL.DD5.1.H264-FGT 3.87GB-2.png 灭亡推手/真藥我的命 Pushing.Dead.2016.1080p.WEB-DL.DD5.1.H264-FGT 3.87GB-4.png






回复

使用道具 举报

懒得打字嘛,点击右侧快捷回复 【右侧内容,后台自定义】
您需要登录后才可以回帖 登录 | 立即加入

本版积分规则

Archiver|小黑屋| 蓝光电影网 |网站地图

Copyright © 2021 Comsenz Inc. Powered by 蓝光电影网

蓝光电影网

本站内容由用户自主分享和转载自互联网,转载目的在于传递更多信息,并不代表本网赞同其观点和对其真实性负责。

如有侵权、违反国家法律政策行为,请联系我们,我们会第一时间及时清除和处理!

举报反馈邮箱:[email protected]

快速回复 返回顶部 返回列表