找回密码

蓝光电影网

查看: 723|回复: 0

[悬疑] 完美罪行/黄石公园杀人事件 Population.Zero.2016.1080p.WEB-DL.DD5.1.H264-FGT 3.20GB

[复制链接]
蓝光币
1020
发表于 2020-2-1 14:50:01 | 显示全部楼层 |阅读模式
完善罪行/黄石公园杀人事务 Population.Zero.2016.1080p.WEB-DL.DD5.1.H264-FGT 3.20GB-1.png

译  名 完善罪行 / 黄石公园杀人事务(台)
片  名 Population Zero
年  代 2016
产  地 美国
类  别 悬疑 / 惊悚 / 犯罪
语  言 英语
上映日期 2016-04-26
IMDb评分  6.0/10 from 786 users
IMDb链接  https://www.imdb.com/title/tt4593196
豆瓣评分 7.3/10 from 242 users
豆瓣链接 https://movie.douban.com/subject/26992400/
片  长 84分钟
导  演 Julian T. Pinder / Adam Levins
编  剧 Jeff Staranchuk
主  演 杜安·莫瑞 Duane Murray
       Julian T. Pinder
       Jonathan Potts
       Julian Robino
       Birgitte Solem


标  签 伪记载片 | 悬疑 | 犯罪 | 美国 | 2016 | 复仇 | 惊悚 | 缝隙

简  介  

  2009年3个年轻人在黄石国家公园的悠远地区被杀戮。仅仅几小时后,Dwayne Nelson走到一个护林站,宣称自己是罪犯。虽然他详实的陈说,Nelson由于美国宪法的缝隙被无罪开释。记录小说作者Julian T. Pinder为了追求犯罪真相旅游到黄石公园,而真相会震动全部国家。美国宪法怎样会让一个罪犯脱身?在完善罪行中唯逐一个比愚蠢的暴力行为更使人震动的是紧随的古怪的事务 。
  1. Video
  2. ID                                       : 1
  3. Format                                   : AVC
  4. Format/Info                              : Advanced Video Codec
  5. Format profile                           : [email protected]
  6. Format settings                          : CABAC / 4 Ref Frames
  7. Format settings, CABAC                   : Yes
  8. Format settings, Reference frames        : 4 frames
  9. Codec ID                                 : V_MPEG4/ISO/AVC
  10. Duration                                 : 1 h 22 min
  11. Bit rate                                 : 5 049 kb/s
  12. Width                                    : 1 908 pixels
  13. Height                                   : 1 068 pixels
  14. Display aspect ratio                     : 16:9
  15. Frame rate mode                          : Constant
  16. Frame rate                               : 23.976 (24000/1001) FPS
  17. Color space                              : YUV
  18. Chroma subsampling                       : 4:2:0
  19. Bit depth                                : 8 bits
  20. Scan type                                : Progressive
  21. Bits/(Pixel*Frame)                       : 0.103
  22. Stream size                              : 2.92 GiB (91%)
  23. Title                                    : Population.Zero.2016.1080p.WEB-DL.DD5.1.H264-FGT
  24. Language                                 : English
  25. Default                                  : Yes
  26. Forced                                   : No
  27. Color range                              : Limited
  28. Color primaries                          : BT.709
  29. Transfer characteristics                 : BT.709
  30. Matrix coefficients                      : BT.709

  31. Audio
  32. ID                                       : 2
  33. Format                                   : AC-3
  34. Format/Info                              : Audio Coding 3
  35. Commercial name                          : Dolby Digital
  36. Codec ID                                 : A_AC3
  37. Duration                                 : 1 h 22 min
  38. Bit rate mode                            : Constant
  39. Bit rate                                 : 384 kb/s
  40. Channel(s)                               : 6 channels
  41. Channel layout                           : L R C LFE Ls Rs
  42. Sampling rate                            : 48.0 kHz
  43. Frame rate                               : 31.250 FPS (1536 SPF)
  44. Compression mode                         : Lossy
  45. Stream size                              : 227 MiB (7%)
  46. Title                                    : Population.Zero.2016.1080p.WEB-DL.DD5.1.H264-FGT
  47. Language                                 : English
  48. Service kind                             : Complete Main
  49. Default                                  : Yes
  50. Forced                                   : No

  51. Text
  52. ID                                       : 3
  53. Format                                   : UTF-8
  54. Codec ID                                 : S_TEXT/UTF8
  55. Codec ID/Info                            : UTF-8 Plain Text
  56. Language                                 : English
  57. Default                                  : Yes
  58. Forced                                   : No

  59. Menu
  60. 00:00:00.000                             : en:1
  61. 00:03:42.000                             : en:2
  62. 00:12:32.000                             : en:3
  63. 00:20:52.000                             : en:4
  64. 00:28:28.000                             : en:5
  65. 00:40:33.000                             : en:6
  66. 00:52:45.000                             : en:7
  67. 00:58:09.000                             : en:8
  68. 01:06:44.000                             : en:9
  69. 01:21:04.000                             : en:10
复制代码

完善罪行/黄石公园杀人事务 Population.Zero.2016.1080p.WEB-DL.DD5.1.H264-FGT 3.20GB-2.png 完善罪行/黄石公园杀人事务 Population.Zero.2016.1080p.WEB-DL.DD5.1.H264-FGT 3.20GB-3.png 完善罪行/黄石公园杀人事务 Population.Zero.2016.1080p.WEB-DL.DD5.1.H264-FGT 3.20GB-4.png 完善罪行/黄石公园杀人事务 Population.Zero.2016.1080p.WEB-DL.DD5.1.H264-FGT 3.20GB-5.png 完善罪行/黄石公园杀人事务 Population.Zero.2016.1080p.WEB-DL.DD5.1.H264-FGT 3.20GB-6.png 完善罪行/黄石公园杀人事务 Population.Zero.2016.1080p.WEB-DL.DD5.1.H264-FGT 3.20GB-7.png






回复

使用道具 举报

懒得打字嘛,点击右侧快捷回复 【右侧内容,后台自定义】
您需要登录后才可以回帖 登录 | 立即加入

本版积分规则

Archiver|小黑屋| 蓝光电影网 |网站地图

Copyright © 2021 Comsenz Inc. Powered by 蓝光电影网

蓝光电影网

本站内容由用户自主分享和转载自互联网,转载目的在于传递更多信息,并不代表本网赞同其观点和对其真实性负责。

如有侵权、违反国家法律政策行为,请联系我们,我们会第一时间及时清除和处理!

举报反馈邮箱:[email protected]

快速回复 返回顶部 返回列表