找回密码

蓝光电影网

查看: 314|回复: 0

[剧情] 女皮条客/皮条客 Pimp.2018.1080p.WEB-DL.DD5.1.H264-FGT 2.98GB

[复制链接]
蓝光币
1022
发表于 2020-2-1 14:50:45 | 显示全部楼层 |阅读模式
女皮条客/皮条客 Pimp.2018.1080p.WEB-DL.DD5.1.H264-FGT 2.98GB-1.png

译  名 女皮条客 / 皮条客
片  名 Pimp
年  代 2018
产  地 美国
类  别 剧情
语  言 英语
上映日期 2018-09(美国)
IMDb评分  8.0/10 from 3135 users
IMDb链接  https://www.imdb.com/title/tt3107166
豆瓣评分 5.2/10 from 216 users
豆瓣链接 https://movie.douban.com/subject/30403272/
导  演 Christine Crokos
编  剧 Christine Crokos
主  演 柯柯·帕尔莫 Keke Palmer
       瓦妮莎·摩根 Vanessa Morgan
       艾迪·盖瑟吉 Edi Gathegi
       哈莉·拉姆 Haley Ramm


标  签 美国 | 黑人 | 犯罪 | 暴力 | 剧情 | 2018 | LGBT | 美国电影

简  介  

  An urban love story set on the hard streets of the Bronx. A struggling female Pimp, named Wednesday, grows up learning the game from her dad. Once he's gone she's left to look out for her prostitute mother and girlfriend Nikki.
  1. Video
  2. ID                                       : 1
  3. Format                                   : AVC
  4. Format/Info                              : Advanced Video Codec
  5. Format profile                           : [email protected]
  6. Format settings                          : CABAC / 5 Ref Frames
  7. Format settings, CABAC                   : Yes
  8. Format settings, Reference frames        : 5 frames
  9. Codec ID                                 : V_MPEG4/ISO/AVC
  10. Duration                                 : 1 h 25 min
  11. Bit rate                                 : 4 610 kb/s
  12. Width                                    : 1 920 pixels
  13. Height                                   : 804 pixels
  14. Display aspect ratio                     : 2.40:1
  15. Frame rate mode                          : Constant
  16. Frame rate                               : 23.976 (23976/1000) FPS
  17. Color space                              : YUV
  18. Chroma subsampling                       : 4:2:0
  19. Bit depth                                : 8 bits
  20. Scan type                                : Progressive
  21. Bits/(Pixel*Frame)                       : 0.125
  22. Stream size                              : 2.75 GiB (92%)
  23. Title                                    : Pimp.2018.1080p.WEB-DL.DD5.1.H264-FGT
  24. Language                                 : English
  25. Default                                  : Yes
  26. Forced                                   : No
  27. Color range                              : Limited
  28. Color primaries                          : BT.709
  29. Transfer characteristics                 : BT.709
  30. Matrix coefficients                      : BT.709

  31. Audio
  32. ID                                       : 2
  33. Format                                   : AC-3
  34. Format/Info                              : Audio Coding 3
  35. Commercial name                          : Dolby Digital
  36. Codec ID                                 : A_AC3
  37. Duration                                 : 1 h 25 min
  38. Bit rate mode                            : Constant
  39. Bit rate                                 : 384 kb/s
  40. Channel(s)                               : 6 channels
  41. Channel layout                           : L R C LFE Ls Rs
  42. Sampling rate                            : 48.0 kHz
  43. Frame rate                               : 31.250 FPS (1536 SPF)
  44. Compression mode                         : Lossy
  45. Stream size                              : 235 MiB (8%)
  46. Title                                    : Pimp.2018.1080p.WEB-DL.DD5.1.H264-FGT
  47. Language                                 : English
  48. Service kind                             : Complete Main
  49. Default                                  : Yes
  50. Forced                                   : No

  51. Menu
  52. 00:00:00.000                             : en:1
  53. 00:06:25.000                             : en:2
  54. 00:13:33.000                             : en:3
  55. 00:20:01.000                             : en:4
  56. 00:28:01.000                             : en:5
  57. 00:33:24.000                             : en:6
  58. 00:42:03.000                             : en:7
  59. 00:49:54.000                             : en:8
  60. 00:58:14.000                             : en:9
  61. 01:05:57.000                             : en:10
  62. 01:11:28.000                             : en:11
  63. 01:19:02.000                             : en:12
复制代码

女皮条客/皮条客 Pimp.2018.1080p.WEB-DL.DD5.1.H264-FGT 2.98GB-2.png 女皮条客/皮条客 Pimp.2018.1080p.WEB-DL.DD5.1.H264-FGT 2.98GB-3.png 女皮条客/皮条客 Pimp.2018.1080p.WEB-DL.DD5.1.H264-FGT 2.98GB-4.png






回复

使用道具 举报

懒得打字嘛,点击右侧快捷回复 【右侧内容,后台自定义】
您需要登录后才可以回帖 登录 | 立即加入

本版积分规则

Archiver|小黑屋| 蓝光电影网 |网站地图

Copyright © 2021 Comsenz Inc. Powered by 蓝光电影网

蓝光电影网

本站内容由用户自主分享和转载自互联网,转载目的在于传递更多信息,并不代表本网赞同其观点和对其真实性负责。

如有侵权、违反国家法律政策行为,请联系我们,我们会第一时间及时清除和处理!

举报反馈邮箱:[email protected]

快速回复 返回顶部 返回列表