找回密码

蓝光电影网

查看: 245|回复: 0

[喜剧] 12号大屠杀 Massacre.on.Aisle.12.2016.1080p.WEB-DL.DD5.1.H264-FGT 3.27GB

[复制链接]
蓝光币
1022
发表于 2020-2-1 14:55:44 | 显示全部楼层 |阅读模式
12号大屠杀 Massacre.on.Aisle.12.2016.1080p.WEB-DL.DD5.1.H264-FGT 3.27GB-1.png

译  名 12号大屠杀
片  名 Massacre on Aisle 12
年  代 2016
产  地 美国
类  别 笑剧 / 可骇
上映日期 2016-11-05
IMDb评分  5.3/10 from 1218 users
IMDb链接  https://www.imdb.com/title/tt4010862
豆瓣评分 0/10 from 0 users
豆瓣链接 https://movie.douban.com/subject/26655829/
导  演 Jim Klock / William Mark McCullough
编  剧 A.J. Via / Chad Ridgely
主  演 Chad Ridgely
       Michael Buonomo
       吉姆·克洛克 Jim Klock


标  签 黑色诙谐 | 血腥 | 可骇 | 美国 | 犯罪 | 笑剧 | 2016 | 美国电影

简  介  

  A hardware store employee's first night on the job is disrupted by the discovery of a dead body and a duffel bag full of cash.
  1. Video
  2. ID                                       : 1
  3. Format                                   : AVC
  4. Format/Info                              : Advanced Video Codec
  5. Format profile                           : [email protected]
  6. Format settings                          : CABAC / 4 Ref Frames
  7. Format settings, CABAC                   : Yes
  8. Format settings, Reference frames        : 4 frames
  9. Codec ID                                 : V_MPEG4/ISO/AVC
  10. Duration                                 : 1 h 22 min
  11. Bit rate                                 : 5 159 kb/s
  12. Width                                    : 1 908 pixels
  13. Height                                   : 1 068 pixels
  14. Display aspect ratio                     : 16:9
  15. Frame rate mode                          : Constant
  16. Frame rate                               : 23.976 (24000/1001) FPS
  17. Color space                              : YUV
  18. Chroma subsampling                       : 4:2:0
  19. Bit depth                                : 8 bits
  20. Scan type                                : Progressive
  21. Bits/(Pixel*Frame)                       : 0.106
  22. Stream size                              : 2.98 GiB (91%)
  23. Title                                    : Massacre.on.Aisle.12.2016.1080p.WEB-DL.DD5.1.H264-FGT
  24. Language                                 : English
  25. Default                                  : Yes
  26. Forced                                   : No
  27. Color range                              : Limited
  28. Color primaries                          : BT.709
  29. Transfer characteristics                 : BT.709
  30. Matrix coefficients                      : BT.709

  31. Audio
  32. ID                                       : 2
  33. Format                                   : AC-3
  34. Format/Info                              : Audio Coding 3
  35. Commercial name                          : Dolby Digital
  36. Codec ID                                 : A_AC3
  37. Duration                                 : 1 h 22 min
  38. Bit rate mode                            : Constant
  39. Bit rate                                 : 384 kb/s
  40. Channel(s)                               : 6 channels
  41. Channel layout                           : L R C LFE Ls Rs
  42. Sampling rate                            : 48.0 kHz
  43. Frame rate                               : 31.250 FPS (1536 SPF)
  44. Compression mode                         : Lossy
  45. Stream size                              : 227 MiB (7%)
  46. Title                                    : Massacre.on.Aisle.12.2016.1080p.WEB-DL.DD5.1.H264-FGT
  47. Language                                 : English
  48. Service kind                             : Complete Main
  49. Default                                  : Yes
  50. Forced                                   : No

  51. Text
  52. ID                                       : 3
  53. Format                                   : UTF-8
  54. Codec ID                                 : S_TEXT/UTF8
  55. Codec ID/Info                            : UTF-8 Plain Text
  56. Language                                 : English
  57. Default                                  : Yes
  58. Forced                                   : No

  59. Menu
  60. 00:00:00.000                             : en:Chapter 1
  61. 00:05:34.501                             : en:Chapter 2
  62. 00:11:36.529                             : en:Chapter 3
  63. 00:15:59.291                             : en:Chapter 4
  64. 00:20:21.177                             : en:Chapter 5
  65. 00:25:27.066                             : en:Chapter 6
  66. 00:30:34.748                             : en:Chapter 7
  67. 00:37:28.953                             : en:Chapter 8
  68. 00:41:04.710                             : en:Chapter 9
  69. 00:45:16.920                             : en:Chapter 10
  70. 00:49:21.873                             : en:Chapter 11
  71. 00:52:39.654                             : en:Chapter 12
  72. 00:58:04.311                             : en:Chapter 13
  73. 01:03:32.931                             : en:Chapter 14
  74. 01:09:03.052                             : en:Chapter 15
  75. 01:16:18.362                             : en:Chapter 16
复制代码

12号大屠杀 Massacre.on.Aisle.12.2016.1080p.WEB-DL.DD5.1.H264-FGT 3.27GB-2.png 12号大屠杀 Massacre.on.Aisle.12.2016.1080p.WEB-DL.DD5.1.H264-FGT 3.27GB-3.png 12号大屠杀 Massacre.on.Aisle.12.2016.1080p.WEB-DL.DD5.1.H264-FGT 3.27GB-4.png 12号大屠杀 Massacre.on.Aisle.12.2016.1080p.WEB-DL.DD5.1.H264-FGT 3.27GB-5.png 12号大屠杀 Massacre.on.Aisle.12.2016.1080p.WEB-DL.DD5.1.H264-FGT 3.27GB-6.png 12号大屠杀 Massacre.on.Aisle.12.2016.1080p.WEB-DL.DD5.1.H264-FGT 3.27GB-7.png






回复

使用道具 举报

懒得打字嘛,点击右侧快捷回复 【右侧内容,后台自定义】
您需要登录后才可以回帖 登录 | 立即加入

本版积分规则

Archiver|小黑屋| 蓝光电影网 |网站地图

Copyright © 2021 Comsenz Inc. Powered by 蓝光电影网

蓝光电影网

本站内容由用户自主分享和转载自互联网,转载目的在于传递更多信息,并不代表本网赞同其观点和对其真实性负责。

如有侵权、违反国家法律政策行为,请联系我们,我们会第一时间及时清除和处理!

举报反馈邮箱:[email protected]

快速回复 返回顶部 返回列表