找回密码

蓝光电影网

查看: 370|回复: 0

[爱情] 康福特 Comfort.2016.1080p.WEB-DL.DD5.1.H264-FGT 4.08GB

[复制链接]
蓝光币
1020
发表于 2020-2-1 15:01:05 | 显示全部楼层 |阅读模式
康福特 Comfort.2016.1080p.WEB-DL.DD5.1.H264-FGT 4.08GB-1.png

译  名 康福特
片  名 Comfort
年  代 2016
产  地 美国
类  别 恋爱
语  言 英语
上映日期 2016-03-05(美国)
IMDb评分  6.4/10 from 302 users
IMDb链接  https://www.imdb.com/title/tt4394104
豆瓣评分 0/10 from 0 users
豆瓣链接 https://movie.douban.com/subject/26968038/
片  长 103分钟
导  演 William Lu
编  剧 William Lu
主  演 Chris Dinh
       Julie Zhan
       Kevin Ashworth
       Michael Boucher
       Michael Bow
       Shawn Cahill
       Feodor Chin
       Stephen DeCordova
       Erika Heidelberger
       Mark Heidelberger
       布瑞尔特·杰克布森 Brett Jacobsen
       Jolene Kim
       Josh Murphy
       Vivian Tu
       Billy 'Sly' Williams
       余朝汉 Kelvin Han Yee


标  签 恋爱 | 美国电影 | 美国 | 还可以的~ | 剧情 | 2016 | 2010s

简  介  

  A late night courier boy agrees to pick up the feisty daughter of an important client. The two youngsters form a close connection and spend two nights exploring LA's local food scene while their romance blossoms.
  1. Video
  2. ID                                       : 1
  3. Format                                   : AVC
  4. Format/Info                              : Advanced Video Codec
  5. Format profile                           : [email protected]
  6. Format settings                          : CABAC / 4 Ref Frames
  7. Format settings, CABAC                   : Yes
  8. Format settings, Reference frames        : 4 frames
  9. Codec ID                                 : V_MPEG4/ISO/AVC
  10. Duration                                 : 1 h 45 min
  11. Bit rate                                 : 5 053 kb/s
  12. Width                                    : 1 912 pixels
  13. Height                                   : 1 032 pixels
  14. Display aspect ratio                     : 1.85:1
  15. Frame rate mode                          : Constant
  16. Frame rate                               : 23.976 FPS
  17. Color space                              : YUV
  18. Chroma subsampling                       : 4:2:0
  19. Bit depth                                : 8 bits
  20. Scan type                                : Progressive
  21. Bits/(Pixel*Frame)                       : 0.107
  22. Stream size                              : 3.72 GiB (91%)
  23. Title                                    : Comfort.2016.1080p.WEB-DL.DD5.1.H264-FGT
  24. Language                                 : English
  25. Default                                  : Yes
  26. Forced                                   : No
  27. Color range                              : Limited
  28. Color primaries                          : BT.709
  29. Transfer characteristics                 : BT.709
  30. Matrix coefficients                      : BT.709

  31. Audio
  32. ID                                       : 2
  33. Format                                   : AC-3
  34. Format/Info                              : Audio Coding 3
  35. Commercial name                          : Dolby Digital
  36. Codec ID                                 : A_AC3
  37. Duration                                 : 1 h 45 min
  38. Bit rate mode                            : Constant
  39. Bit rate                                 : 384 kb/s
  40. Channel(s)                               : 6 channels
  41. Channel layout                           : L R C LFE Ls Rs
  42. Sampling rate                            : 48.0 kHz
  43. Frame rate                               : 31.250 FPS (1536 SPF)
  44. Compression mode                         : Lossy
  45. Stream size                              : 290 MiB (7%)
  46. Title                                    : Comfort.2016.1080p.WEB-DL.DD5.1.H264-FGT
  47. Language                                 : English
  48. Service kind                             : Complete Main
  49. Default                                  : Yes
  50. Forced                                   : No

  51. Text
  52. ID                                       : 3
  53. Format                                   : UTF-8
  54. Codec ID                                 : S_TEXT/UTF8
  55. Codec ID/Info                            : UTF-8 Plain Text
  56. Language                                 : English
  57. Default                                  : Yes
  58. Forced                                   : No

  59. Menu
  60. 00:00:00.000                             : en:Chapter 1
  61. 00:31:59.000                             : en:Chapter 2
  62. 01:03:17.000                             : en:Chapter 3
  63. 01:42:52.000                             : en:Chapter 4
复制代码

康福特 Comfort.2016.1080p.WEB-DL.DD5.1.H264-FGT 4.08GB-2.png 康福特 Comfort.2016.1080p.WEB-DL.DD5.1.H264-FGT 4.08GB-3.png 康福特 Comfort.2016.1080p.WEB-DL.DD5.1.H264-FGT 4.08GB-4.png 康福特 Comfort.2016.1080p.WEB-DL.DD5.1.H264-FGT 4.08GB-5.png 康福特 Comfort.2016.1080p.WEB-DL.DD5.1.H264-FGT 4.08GB-6.png 康福特 Comfort.2016.1080p.WEB-DL.DD5.1.H264-FGT 4.08GB-7.png






回复

使用道具 举报

懒得打字嘛,点击右侧快捷回复 【右侧内容,后台自定义】
您需要登录后才可以回帖 登录 | 立即加入

本版积分规则

Archiver|小黑屋| 蓝光电影网 |网站地图

Copyright © 2021 Comsenz Inc. Powered by 蓝光电影网

蓝光电影网

本站内容由用户自主分享和转载自互联网,转载目的在于传递更多信息,并不代表本网赞同其观点和对其真实性负责。

如有侵权、违反国家法律政策行为,请联系我们,我们会第一时间及时清除和处理!

举报反馈邮箱:[email protected]

快速回复 返回顶部 返回列表