找回密码

蓝光电影网

查看: 341|回复: 1

[剧情] 犬猿 Thicker.Than.Water.2018.JAPANESE.1080p.BluRay.x264-iKiW 8.39GB

[复制链接]
蓝光币
894
发表于 2020-2-1 15:02:13 | 显示全部楼层 |阅读模式
犬猿 Thicker.Than.Water.2018.JAPANESE.1080p.BluRay.x264-iKiW 8.39GB-1.png

译  名 Kenen / Thicker Than Water
片  名 犬猿
年  代 2018
产  地 日本
类  别 剧情 / 笑剧
语  言 日语
上映日期 2018-02-10(日本)
IMDb评分  6.8/10 from 77 users
IMDb链接  https://www.imdb.com/title/tt7222290
豆瓣评分 7.1/10 from 2261 users
豆瓣链接 https://movie.douban.com/subject/27107142/
片  长 103分钟
导  演 吉田恵辅 Keisuke Yoshida
编  剧 吉田恵辅 Keisuke Yoshida
主  演 洼田正孝 Masataka Kubota
       新井浩文 Hirofumi Arai
       江上敬子 Keiko Enoue
       笕美和子 Miwako Kakei


标  签 日本 | 家庭 | 2018 | 剧情 | 亲情 | 人性 | 笑剧 | 日剧

简  介  

  影片描画了刚刚出狱的麻烦制造者哥哥与本性温柔的上班族弟弟,工作才能强却心胸狭窄的姐姐与稍显自然,冒失没经历的妹妹之间发生的感情故事。
  1. Video
  2. ID                                       : 1
  3. Format                                   : AVC
  4. Format/Info                              : Advanced Video Codec
  5. Format profile                           : [email protected]
  6. Format settings                          : CABAC / 4 Ref Frames
  7. Format settings, CABAC                   : Yes
  8. Format settings, Reference frames        : 4 frames
  9. Codec ID                                 : V_MPEG4/ISO/AVC
  10. Duration                                 : 1 h 43 min
  11. Bit rate                                 : 11.0 Mb/s
  12. Width                                    : 1 920 pixels
  13. Height                                   : 1 038 pixels
  14. Display aspect ratio                     : 1.85:1
  15. Frame rate mode                          : Constant
  16. Frame rate                               : 23.976 (24000/1001) FPS
  17. Color space                              : YUV
  18. Chroma subsampling                       : 4:2:0
  19. Bit depth                                : 8 bits
  20. Scan type                                : Progressive
  21. Bits/(Pixel*Frame)                       : 0.230
  22. Stream size                              : 7.92 GiB (94%)
  23. Writing library                          : x264 core 129 r2245+704+36 8e61944 tMod+MixAQ [[email protected]:2:0 X86_64]
  24. Encoding settings                        : cabac=1 / ref=4 / deblock=1:-3:-3 / analyse=0x3:0x133 / me=umh / subme=11 / psy=1 / fade_compensate=0.00 / psy_rd=1.05:0.10 / mixed_ref=1 / me_range=64 / chroma_me=1 / trellis=2 / 8x8dct=1 / cqm=0 / deadzone=21,11 / fast_pskip=0 / chroma_qp_offset=-3 / threads=18 / lookahead_threads=3 / sliced_threads=0 / nr=0 / decimate=0 / interlaced=0 / bluray_compat=0 / constrained_intra=0 / fgo=0 / bframes=10 / b_pyramid=2 / b_adapt=2 / b_bias=0 / direct=3 / weightb=1 / open_gop=0 / weightp=2 / keyint=250 / keyint_min=23 / scenecut=40 / intra_refresh=0 / rc=2pass / mbtree=0 / bitrate=11006 / ratetol=1.0 / qcomp=0.70 / qpmin=0 / qpmax=69 / qpstep=4 / cplxblur=20.0 / qblur=0.5 / ip_ratio=1.40 / pb_ratio=1.30 / aq=1 / aq-strength=0.90 / aq-sensitivity=10.00 / aq-ifactor=1.00 / aq-pfactor=1.00 / aq-bfactor=1.00 / aq2=0
  25. Language                                 : Japanese
  26. Default                                  : Yes
  27. Forced                                   : No

  28. Audio
  29. ID                                       : 2
  30. Format                                   : AC-3
  31. Format/Info                              : Audio Coding 3
  32. Commercial name                          : Dolby Digital
  33. Codec ID                                 : A_AC3
  34. Duration                                 : 1 h 43 min
  35. Bit rate mode                            : Constant
  36. Bit rate                                 : 640 kb/s
  37. Channel(s)                               : 6 channels
  38. Channel layout                           : L R C LFE Ls Rs
  39. Sampling rate                            : 48.0 kHz
  40. Frame rate                               : 31.250 FPS (1536 SPF)
  41. Bit depth                                : 16 bits
  42. Compression mode                         : Lossy
  43. Stream size                              : 472 MiB (5%)
  44. Language                                 : Japanese
  45. Service kind                             : Complete Main
  46. Default                                  : Yes
  47. Forced                                   : No

  48. Text #1
  49. ID                                       : 3
  50. Format                                   : UTF-8
  51. Codec ID                                 : S_TEXT/UTF8
  52. Codec ID/Info                            : UTF-8 Plain Text
  53. Duration                                 : 1 h 38 min
  54. Bit rate                                 : 60 b/s
  55. Count of elements                        : 1509
  56. Stream size                              : 43.5 KiB (0%)
  57. Language                                 : English
  58. Default                                  : Yes
  59. Forced                                   : No

  60. Text #2
  61. ID                                       : 4
  62. Format                                   : ASS
  63. Codec ID                                 : S_TEXT/ASS
  64. Codec ID/Info                            : Advanced Sub Station Alpha
  65. Duration                                 : 1 h 39 min
  66. Bit rate                                 : 109 b/s
  67. Count of elements                        : 1537
  68. Compression mode                         : Lossless
  69. Stream size                              : 79.3 KiB (0%)
  70. Language                                 : Chinese
  71. Default                                  : No
  72. Forced                                   : No

  73. Menu
  74. 00:00:00.000                             : en:00:00:00.000
  75. 00:05:51.976                             : en:00:05:51.976
  76. 00:13:24.595                             : en:00:13:24.595
  77. 00:19:46.435                             : en:00:19:46.435
  78. 00:25:34.533                             : en:00:25:34.533
  79. 00:34:02.331                             : en:00:34:02.331
  80. 00:37:54.272                             : en:00:37:54.272
  81. 00:44:03.349                             : en:00:44:03.349
  82. 00:50:05.711                             : en:00:50:05.711
  83. 00:54:39.484                             : en:00:54:39.484
  84. 00:59:39.450                             : en:00:59:39.450
  85. 01:02:23.322                             : en:01:02:23.322
  86. 01:08:46.831                             : en:01:08:46.831
  87. 01:31:10.381                             : en:01:31:10.381
  88. 01:35:19.338                             : en:01:35:19.338
  89. 01:39:29.171                             : en:01:39:29.171
复制代码

犬猿 Thicker.Than.Water.2018.JAPANESE.1080p.BluRay.x264-iKiW 8.39GB-1.png 犬猿 Thicker.Than.Water.2018.JAPANESE.1080p.BluRay.x264-iKiW 8.39GB-3.png 犬猿 Thicker.Than.Water.2018.JAPANESE.1080p.BluRay.x264-iKiW 8.39GB-4.png






回复

使用道具 举报

懒得打字嘛,点击右侧快捷回复 【右侧内容,后台自定义】
您需要登录后才可以回帖 登录 | 立即加入

本版积分规则

Archiver|小黑屋| 蓝光电影网 |网站地图

Copyright © 2021 Comsenz Inc. Powered by 蓝光电影网

蓝光电影网

本站内容由用户自主分享和转载自互联网,转载目的在于传递更多信息,并不代表本网赞同其观点和对其真实性负责。

如有侵权、违反国家法律政策行为,请联系我们,我们会第一时间及时清除和处理!

举报反馈邮箱:[email protected]

快速回复 返回顶部 返回列表