找回密码

蓝光电影网

查看: 938|回复: 1

[剧情] 最差劲 The.Lowlife.2017.JAPANESE.1080p.BluRay.x264.DTS-iKiW 16.40GB

[复制链接]
蓝光币
886
发表于 2020-2-1 15:03:22 | 显示全部楼层 |阅读模式
最低劣 The.Lowlife.2017.JAPANESE.1080p.BluRay.x264.DTS-iKiW 16.40GB-1.png

译  名 最低劣 / The Lowlife / 女优的广告(台)
片  名 最低。
年  代 2017
产  地 日本
类  别 剧情
语  言 日语
上映日期 2017-10-31(东京电影节) / 2017-11-25(日本)
IMDb评分  5.5/10 from 103 users
IMDb链接  https://www.imdb.com/title/tt6563012
豆瓣评分 5.9/10 from 2194 users
豆瓣链接 https://movie.douban.com/subject/26980859/
片  长 121分钟
导  演 濑濑敬久 Takahisa Zeze
编  剧 纱仓真菜 Mana Sakura / 小川智子 Tomoko Ogawa / 濑濑敬久 Takahisa Zeze
主  演 森口彩乃 Ayano Moriguchi
       佐佐木心音 Kokone Sasaki
       山田爱奈 Aina Yamada
       忍成修吾 Sh?go Oshinari
       森冈龙 Ry? Morioka
       齐藤阳一郎 Yoichiro Saito
       江口德子 Noriko Eguchi
       渡边真起子 Makiko Watanabe
       根岸季衣 Toshie Negishi
       高冈早纪 Saki Takaoka


标  签 日本 | 情色 | 日本电影 | 剧情 | 2017 | 社会 | 日影 | 濑濑敬久

简  介  

  你願意看看,AV女優的內心天下嗎?
  以色情產業為題材,分別道出三位女性因成為AV女優而展開的人生故事。由於自己的職業,讓她們面對家人、伴侶、朋友時,在生命的各個階段滿腹不為人知的辛酸。
  森口是個34歲的一般主婦,受夠了與丈夫的無性生活,從普通的生活一腳踏進AV新天下。佐佐木離鄉背井到東京念書,卻瞞著家人成為了人氣AV女優彩乃。才華弥漫的彩子則因為媽媽AV女優的身份蒙受同學的冷嘲熱諷,讓她再也無法忍受這個天下。

获奖情况  

  第30届东京国际电影节(2017)
  主比赛单元(提名) 濑濑敬久
  1. Video
  2. ID                                       : 1
  3. Format                                   : AVC
  4. Format/Info                              : Advanced Video Codec
  5. Format profile                           : [email protected]
  6. Format settings                          : CABAC / 4 Ref Frames
  7. Format settings, CABAC                   : Yes
  8. Format settings, Reference frames        : 4 frames
  9. Codec ID                                 : V_MPEG4/ISO/AVC
  10. Duration                                 : 2 h 0 min
  11. Bit rate                                 : 17.9 Mb/s
  12. Width                                    : 1 920 pixels
  13. Height                                   : 1 038 pixels
  14. Display aspect ratio                     : 1.85:1
  15. Frame rate mode                          : Constant
  16. Frame rate                               : 23.976 (24000/1001) FPS
  17. Color space                              : YUV
  18. Chroma subsampling                       : 4:2:0
  19. Bit depth                                : 8 bits
  20. Scan type                                : Progressive
  21. Bits/(Pixel*Frame)                       : 0.375
  22. Stream size                              : 15.1 GiB (92%)
  23. Writing library                          : x264 core 142 r2431+42 c69a006 tMod [[email protected] X86_64]
  24. Encoding settings                        : cabac=1 / ref=4 / deblock=1:-3:-3 / analyse=0x3:0x133 / me=umh / subme=11 / psy=1 / fade_compensate=0.00 / psy_rd=1.00:0.05 / mixed_ref=1 / me_range=64 / chroma_me=1 / trellis=2 / 8x8dct=1 / cqm=0 / deadzone=21,11 / fast_pskip=0 / chroma_qp_offset=-1 / threads=12 / lookahead_threads=3 / sliced_threads=0 / nr=0 / decimate=0 / interlaced=0 / bluray_compat=0 / constrained_intra=0 / fgo=0 / bframes=10 / b_pyramid=2 / b_adapt=2 / b_bias=0 / direct=3 / weightb=1 / open_gop=0 / weightp=2 / keyint=250 / keyint_min=23 / scenecut=40 / intra_refresh=0 / rc_lookahead=100 / rc=crf / mbtree=0 / crf=16.5000 / qcomp=0.75 / qpmin=0:0:0 / qpmax=69:69:69 / qpstep=4 / vbv_maxrate=50000 / vbv_bufsize=50000 / crf_max=0.0 / nal_hrd=none / filler=0 / ip_ratio=1.40 / pb_ratio=1.30 / aq=1:0.85 / aq-sensitivity=10.00 / aq-factor=1.00:1.00:1.00 / aq2=0 / aq3=0
  25. Language                                 : Japanese
  26. Default                                  : Yes
  27. Forced                                   : No

  28. Audio
  29. ID                                       : 2
  30. Format                                   : DTS
  31. Format/Info                              : Digital Theater Systems
  32. Codec ID                                 : A_DTS
  33. Duration                                 : 2 h 0 min
  34. Bit rate mode                            : Constant
  35. Bit rate                                 : 1 509 kb/s
  36. Channel(s)                               : 6 channels
  37. Channel layout                           : C L R Ls Rs LFE
  38. Sampling rate                            : 48.0 kHz
  39. Frame rate                               : 93.750 FPS (512 SPF)
  40. Bit depth                                : 24 bits
  41. Compression mode                         : Lossy
  42. Stream size                              : 1.27 GiB (8%)
  43. Language                                 : Japanese
  44. Default                                  : Yes
  45. Forced                                   : No

  46. Text #1
  47. ID                                       : 3
  48. Format                                   : UTF-8
  49. Codec ID                                 : S_TEXT/UTF8
  50. Codec ID/Info                            : UTF-8 Plain Text
  51. Duration                                 : 1 h 59 min
  52. Bit rate                                 : 23 b/s
  53. Count of elements                        : 885
  54. Stream size                              : 20.6 KiB (0%)
  55. Language                                 : English
  56. Default                                  : Yes
  57. Forced                                   : No

  58. Text #2
  59. ID                                       : 4
  60. Format                                   : UTF-8
  61. Codec ID                                 : S_TEXT/UTF8
  62. Codec ID/Info                            : UTF-8 Plain Text
  63. Duration                                 : 1 h 59 min
  64. Bit rate                                 : 21 b/s
  65. Count of elements                        : 882
  66. Stream size                              : 19.1 KiB (0%)
  67. Title                                    : CHS
  68. Language                                 : Chinese
  69. Default                                  : No
  70. Forced                                   : No

  71. Text #3
  72. ID                                       : 5
  73. Format                                   : UTF-8
  74. Codec ID                                 : S_TEXT/UTF8
  75. Codec ID/Info                            : UTF-8 Plain Text
  76. Duration                                 : 1 h 59 min
  77. Bit rate                                 : 21 b/s
  78. Count of elements                        : 882
  79. Stream size                              : 19.1 KiB (0%)
  80. Title                                    : CHT
  81. Language                                 : Chinese
  82. Default                                  : No
  83. Forced                                   : No

  84. Menu
  85. 00:00:00.000                             : en:00:00:00.000
  86. 00:10:20.620                             : en:00:10:20.620
  87. 00:19:58.531                             : en:00:19:58.531
  88. 00:27:50.711                             : en:00:27:50.711
  89. 00:38:34.938                             : en:00:38:34.938
  90. 00:51:00.182                             : en:00:51:00.182
  91. 01:00:09.189                             : en:01:00:09.189
  92. 01:12:17.708                             : en:01:12:17.708
  93. 01:25:09.855                             : en:01:25:09.855
  94. 01:35:28.056                             : en:01:35:28.056
  95. 01:44:26.051                             : en:01:44:26.051
  96. 01:57:53.566                             : en:01:57:53.566
复制代码

最低劣 The.Lowlife.2017.JAPANESE.1080p.BluRay.x264.DTS-iKiW 16.40GB-1.png 最低劣 The.Lowlife.2017.JAPANESE.1080p.BluRay.x264.DTS-iKiW 16.40GB-3.png 最低劣 The.Lowlife.2017.JAPANESE.1080p.BluRay.x264.DTS-iKiW 16.40GB-1.png






回复

使用道具 举报

蓝光币
115
发表于 2020-2-1 20:50:38 | 显示全部楼层

其实我一直觉得楼主的品味不错!呵呵!蓝光电影网太棒了!
回复 支持 反对

使用道具 举报

懒得打字嘛,点击右侧快捷回复 【右侧内容,后台自定义】
您需要登录后才可以回帖 登录 | 立即加入

本版积分规则

Archiver|小黑屋| 蓝光电影网 |网站地图

Copyright © 2021 Comsenz Inc. Powered by 蓝光电影网

蓝光电影网

本站内容由用户自主分享和转载自互联网,转载目的在于传递更多信息,并不代表本网赞同其观点和对其真实性负责。

如有侵权、违反国家法律政策行为,请联系我们,我们会第一时间及时清除和处理!

举报反馈邮箱:[email protected]

快速回复 返回顶部 返回列表