找回密码

蓝光电影网

查看: 450|回复: 2

[剧情] 欧米茄综合症 Omega.Syndrome.1986.1080p.BluRay.x264.DTS-FGT 8.10GB

[复制链接]
蓝光币
886
发表于 2020-2-1 15:10:07 | 显示全部楼层 |阅读模式
欧米茄综合症 Omega.Syndrome.1986.1080p.BluRay.x264.DTS-FGT 8.10GB-1.png

译  名 欧米茄综合症
片  名 Omega Syndrome
年  代 1987
产  地 美国
类  别 剧情 / 行动
语  言 英语
上映日期 1987
IMDb评分  4.6/10 from 131 users
IMDb链接  https://www.imdb.com/title/tt0093671
豆瓣评分 0/10 from 0 users
豆瓣链接 https://movie.douban.com/subject/5047367/
片  长 90 分钟
导  演 Joseph Manduke
编  剧 John Sharkey
主  演 肯·沃尔 Ken Wahl
       乔治·第桑佐 George DiCenzo
       妮可尔·埃格特 Nicole Eggert
       Xander Berkeley
       Ron Kuhlman


标  签 被轻忽的电影

简  介  

  An ex-GI's daughter is abducted by a gang of white supremacists. He calls on one of his former Army buddies, and together they set out to track down the gang and rescue his daughter.
  1. Video
  2. ID                                       : 1
  3. Format                                   : AVC
  4. Format/Info                              : Advanced Video Codec
  5. Format profile                           : [email protected]
  6. Format settings                          : CABAC / 4 Ref Frames
  7. Format settings, CABAC                   : Yes
  8. Format settings, Reference frames        : 4 frames
  9. Codec ID                                 : V_MPEG4/ISO/AVC
  10. Duration                                 : 1 h 29 min
  11. Bit rate                                 : 11.5 Mb/s
  12. Width                                    : 1 920 pixels
  13. Height                                   : 1 080 pixels
  14. Display aspect ratio                     : 16:9
  15. Frame rate mode                          : Constant
  16. Frame rate                               : 23.976 (24000/1001) FPS
  17. Color space                              : YUV
  18. Chroma subsampling                       : 4:2:0
  19. Bit depth                                : 8 bits
  20. Scan type                                : Progressive
  21. Bits/(Pixel*Frame)                       : 0.231
  22. Stream size                              : 7.16 GiB (88%)
  23. Title                                    : Omega.Syndrome.1986.1080p.BluRay.x264.DTS-FGT
  24. Writing library                          : x264 core 148 r2795M aaa9aa8
  25. Encoding settings                        : cabac=1 / ref=4 / deblock=1:-2:-2 / analyse=0x3:0x113 / me=umh / subme=9 / psy=1 / psy_rd=1.00:0.15 / mixed_ref=1 / me_range=16 / chroma_me=1 / trellis=2 / 8x8dct=1 / cqm=0 / deadzone=21,11 / fast_pskip=1 / chroma_qp_offset=-3 / threads=72 / lookahead_threads=3 / sliced_threads=0 / nr=0 / decimate=1 / interlaced=0 / bluray_compat=0 / constrained_intra=0 / bframes=3 / b_pyramid=2 / b_adapt=1 / b_bias=0 / direct=3 / weightb=1 / open_gop=0 / weightp=2 / keyint=250 / keyint_min=25 / scenecut=40 / intra_refresh=0 / rc_lookahead=50 / rc=2pass / mbtree=1 / bitrate=11500 / ratetol=1.0 / qcomp=0.60 / qpmin=0 / qpmax=69 / qpstep=4 / cplxblur=20.0 / qblur=0.5 / vbv_maxrate=31250 / vbv_bufsize=31250 / nal_hrd=none / filler=0 / ip_ratio=1.40 / aq=1:1.00
  26. Language                                 : English
  27. Default                                  : Yes
  28. Forced                                   : No

  29. Audio
  30. ID                                       : 2
  31. Format                                   : DTS
  32. Format/Info                              : Digital Theater Systems
  33. Codec ID                                 : A_DTS
  34. Duration                                 : 1 h 29 min
  35. Bit rate mode                            : Constant
  36. Bit rate                                 : 1 509 kb/s
  37. Channel(s)                               : 2 channels
  38. Channel layout                           : Lt Rt
  39. Sampling rate                            : 48.0 kHz
  40. Frame rate                               : 93.750 FPS (512 SPF)
  41. Bit depth                                : 24 bits
  42. Compression mode                         : Lossy
  43. Stream size                              : 962 MiB (12%)
  44. Title                                    : Omega.Syndrome.1986.1080p.BluRay.x264.DTS-FGT
  45. Language                                 : English
  46. Default                                  : Yes
  47. Forced                                   : No

  48. Text
  49. ID                                       : 3
  50. Format                                   : UTF-8
  51. Codec ID                                 : S_TEXT/UTF8
  52. Codec ID/Info                            : UTF-8 Plain Text
  53. Duration                                 : 1 h 24 min
  54. Bit rate                                 : 52 b/s
  55. Count of elements                        : 1256
  56. Stream size                              : 32.7 KiB (0%)
  57. Language                                 : English
  58. Default                                  : Yes
  59. Forced                                   : No

  60. Menu
  61. 00:00:00.000                             : en:Chapter 01
  62. 00:08:14.869                             : en:Chapter 02
  63. 00:18:48.127                             : en:Chapter 03
  64. 00:27:46.790                             : en:Chapter 04
  65. 00:36:42.909                             : en:Chapter 05
  66. 00:45:30.477                             : en:Chapter 06
  67. 00:54:55.667                             : en:Chapter 07
  68. 01:02:08.349                             : en:Chapter 08
  69. 01:10:03.866                             : en:Chapter 09
  70. 01:18:43.927                             : en:Chapter 10
  71. 01:26:04.534                             : en:Chapter 11
复制代码

欧米茄综合症 Omega.Syndrome.1986.1080p.BluRay.x264.DTS-FGT 8.10GB-2.png 欧米茄综合症 Omega.Syndrome.1986.1080p.BluRay.x264.DTS-FGT 8.10GB-2.png 欧米茄综合症 Omega.Syndrome.1986.1080p.BluRay.x264.DTS-FGT 8.10GB-4.png






回复

使用道具 举报

懒得打字嘛,点击右侧快捷回复 【右侧内容,后台自定义】
您需要登录后才可以回帖 登录 | 立即加入

本版积分规则

Archiver|小黑屋| 蓝光电影网 |网站地图

Copyright © 2021 Comsenz Inc. Powered by 蓝光电影网

蓝光电影网

本站内容由用户自主分享和转载自互联网,转载目的在于传递更多信息,并不代表本网赞同其观点和对其真实性负责。

如有侵权、违反国家法律政策行为,请联系我们,我们会第一时间及时清除和处理!

举报反馈邮箱:[email protected]

快速回复 返回顶部 返回列表