找回密码

蓝光电影网

查看: 235|回复: 1

[喜剧] 僵尸世界2 Zombie.World.2.2018.1080p.WEB-DL.AAC2.0.H264-FGT 2.67GB

[复制链接]
蓝光币
886
发表于 2020-2-1 15:17:50 | 显示全部楼层 |阅读模式
僵尸天下2 Zombie.World.2.2018.1080p.WEB-DL.AAC2.0.H264-FGT 2.67GB-1.png

译  名 僵尸天下2 / Zombieland 2
片  名 Zombie World 2
年  代 2018
产  地 美国
类  别 笑剧 / 可骇
语  言 英语
上映日期 2018(美国)
IMDb评分  2.7/10 from 74 users
IMDb链接  https://www.imdb.com/title/tt7575400
豆瓣评分 3.9/10 from 109 users
豆瓣链接 https://movie.douban.com/subject/30257376/
片  长 83分钟
导  演 Fernando González Gómez / Christopher G. Moore
编  剧 Evan Tramel
主  演 Alena Koch


标  签 僵尸 | 丧尸 | 美国 | 血腥 | 电影 | 烂片 | 无聊 | 2018

简  介  

  僵尸天下第二部。一样的噩梦再次来袭,配角梦到自己来到了一个可骇的天下,没有人类,只要僵尸,消灭他们,你才有能够回到本来的生活。僵尸天下2无敌版,人物无敌。 链接: https://pan.baidu.com/s/1WMX51k_9q-gcngJ-8665Yg   密码: je52
  1. Video
  2. ID                                       : 1
  3. Format                                   : AVC
  4. Format/Info                              : Advanced Video Codec
  5. Format profile                           : [email protected]
  6. Format settings                          : CABAC / 5 Ref Frames
  7. Format settings, CABAC                   : Yes
  8. Format settings, Reference frames        : 5 frames
  9. Format settings, GOP                     : N=1
  10. Codec ID                                 : V_MPEG4/ISO/AVC
  11. Duration                                 : 1 h 22 min
  12. Bit rate                                 : 4 492 kb/s
  13. Width                                    : 1 920 pixels
  14. Height                                   : 688 pixels
  15. Display aspect ratio                     : 2.791
  16. Frame rate mode                          : Constant
  17. Frame rate                               : 23.976 FPS
  18. Color space                              : YUV
  19. Chroma subsampling                       : 4:2:0
  20. Bit depth                                : 8 bits
  21. Scan type                                : Progressive
  22. Bits/(Pixel*Frame)                       : 0.142
  23. Stream size                              : 2.60 GiB (97%)
  24. Title                                    : Zombie.World.2.2018.1080p.WEB-DL.AAC2.0.H.264-FGT
  25. Language                                 : English
  26. Default                                  : Yes
  27. Forced                                   : No
  28. Color range                              : Limited
  29. Color primaries                          : BT.709
  30. Transfer characteristics                 : BT.709
  31. Matrix coefficients                      : BT.709

  32. Audio
  33. ID                                       : 2
  34. Format                                   : AAC LC
  35. Format/Info                              : Advanced Audio Codec Low Complexity
  36. Codec ID                                 : A_AAC-2
  37. Duration                                 : 1 h 22 min
  38. Bit rate                                 : 128 kb/s
  39. Channel(s)                               : 2 channels
  40. Channel layout                           : L R
  41. Sampling rate                            : 48.0 kHz
  42. Frame rate                               : 46.875 FPS (1024 SPF)
  43. Compression mode                         : Lossy
  44. Stream size                              : 75.5 MiB (3%)
  45. Title                                    : Zombie.World.2.2018.1080p.WEB-DL.AAC2.0.H.264-FGT
  46. Language                                 : English
  47. Default                                  : Yes
  48. Forced                                   : No

  49. Menu
  50. 00:00:00.000                             : en:1
  51. 00:08:04.401                             : en:2
  52. 00:23:27.323                             : en:3
  53. 00:36:34.233                             : en:4
  54. 00:42:04.646                             : en:5
  55. 01:15:54.258                             : en:6
复制代码

僵尸天下2 Zombie.World.2.2018.1080p.WEB-DL.AAC2.0.H264-FGT 2.67GB-2.png 僵尸天下2 Zombie.World.2.2018.1080p.WEB-DL.AAC2.0.H264-FGT 2.67GB-3.png 僵尸天下2 Zombie.World.2.2018.1080p.WEB-DL.AAC2.0.H264-FGT 2.67GB-4.png






回复

使用道具 举报

蓝光币
776
发表于 2021-5-1 11:21:48 | 显示全部楼层

楼主太厉害了!楼主,电影应该很好看我觉得蓝光电影网真是个好地方!
回复 支持 反对

使用道具 举报

懒得打字嘛,点击右侧快捷回复 【右侧内容,后台自定义】
您需要登录后才可以回帖 登录 | 立即加入

本版积分规则

Archiver|小黑屋| 蓝光电影网 |网站地图

Copyright © 2021 Comsenz Inc. Powered by 蓝光电影网

蓝光电影网

本站内容由用户自主分享和转载自互联网,转载目的在于传递更多信息,并不代表本网赞同其观点和对其真实性负责。

如有侵权、违反国家法律政策行为,请联系我们,我们会第一时间及时清除和处理!

举报反馈邮箱:[email protected]

快速回复 返回顶部 返回列表