找回密码

蓝光电影网

查看: 279|回复: 0

[纪录] 最危险的记者 The.Newspaperman.The.Life.and.Times.of.Ben.Bradlee.2017.1080p.AMZN.WEBRip.DD5.1.x264-QOQ 4.84GB

[复制链接]
蓝光币
1022
发表于 2020-2-1 15:24:23 | 显示全部楼层 |阅读模式
最危险的记者 The.Newspaperman.The.Life.and.Times.of.Ben.Bradlee.2017.1080p.AMZN.WEBRip.DD5.1.x264-QOQ 4.84GB-1.png

译  名 最危险的记者
片  名 The Newspaperman: The Life and Times of Ben Bradlee
年  代 2017
产  地 美国
类  别 记载片
语  言 英语
上映日期 2017-12-04(美国)
IMDb评分  7.2/10 from 384 users
IMDb链接  https://www.imdb.com/title/tt7657972
豆瓣评分 0/10 from 0 users
豆瓣链接 https://movie.douban.com/subject/27599045/
片  长 90分钟
导  演 John Maggio
主  演 Benjamin C. Bradlee
       Carl Bernstein


标  签 美国 | 记载片 | 消息自在 | 记录片 | 丑闻 | Documentary | 水门 | 五角大楼

简  介  

  A documentary about Ben Bradlee, the iconic editor of The Washington Post.

获奖情况  

  第29届美国制片野生会奖(2018)
  最好记载片制片人奖(提名)
  1. Video
  2. ID                                       : 1
  3. Format                                   : AVC
  4. Format/Info                              : Advanced Video Codec
  5. Format profile                           : [email protected]
  6. Format settings                          : CABAC / 4 Ref Frames
  7. Format settings, CABAC                   : Yes
  8. Format settings, Reference frames        : 4 frames
  9. Codec ID                                 : V_MPEG4/ISO/AVC
  10. Duration                                 : 1 h 30 min
  11. Bit rate mode                            : Variable
  12. Bit rate                                 : 7 046 kb/s
  13. Maximum bit rate                         : 15.0 Mb/s
  14. Width                                    : 1 920 pixels
  15. Height                                   : 1 080 pixels
  16. Display aspect ratio                     : 16:9
  17. Frame rate mode                          : Constant
  18. Frame rate                               : 23.976 (24000/1001) FPS
  19. Color space                              : YUV
  20. Chroma subsampling                       : 4:2:0
  21. Bit depth                                : 8 bits
  22. Scan type                                : Progressive
  23. Bits/(Pixel*Frame)                       : 0.142
  24. Stream size                              : 4.44 GiB (92%)
  25. Default                                  : Yes
  26. Forced                                   : No
  27. Color range                              : Limited
  28. Color primaries                          : BT.709
  29. Transfer characteristics                 : BT.709
  30. Matrix coefficients                      : BT.709

  31. Audio
  32. ID                                       : 2
  33. Format                                   : E-AC-3
  34. Format/Info                              : Enhanced AC-3
  35. Commercial name                          : Dolby Digital Plus
  36. Codec ID                                 : A_EAC3
  37. Duration                                 : 1 h 30 min
  38. Bit rate mode                            : Constant
  39. Bit rate                                 : 640 kb/s
  40. Channel(s)                               : 6 channels
  41. Channel layout                           : L R C LFE Ls Rs
  42. Sampling rate                            : 48.0 kHz
  43. Frame rate                               : 31.250 FPS (1536 SPF)
  44. Compression mode                         : Lossy
  45. Stream size                              : 413 MiB (8%)
  46. Language                                 : English
  47. Service kind                             : Complete Main
  48. Default                                  : Yes
  49. Forced                                   : No

  50. Text
  51. ID                                       : 3
  52. Format                                   : UTF-8
  53. Codec ID                                 : S_TEXT/UTF8
  54. Codec ID/Info                            : UTF-8 Plain Text
  55. Duration                                 : 1 h 28 min
  56. Bit rate                                 : 100 b/s
  57. Count of elements                        : 1651
  58. Stream size                              : 65.5 KiB (0%)
  59. Language                                 : English
  60. Default                                  : No
  61. Forced                                   : No
复制代码

最危险的记者 The.Newspaperman.The.Life.and.Times.of.Ben.Bradlee.2017.1080p.AMZN.WEBRip.DD5.1.x264-QOQ 4.84GB-2.png 最危险的记者 The.Newspaperman.The.Life.and.Times.of.Ben.Bradlee.2017.1080p.AMZN.WEBRip.DD5.1.x264-QOQ 4.84GB-3.png 最危险的记者 The.Newspaperman.The.Life.and.Times.of.Ben.Bradlee.2017.1080p.AMZN.WEBRip.DD5.1.x264-QOQ 4.84GB-4.png 最危险的记者 The.Newspaperman.The.Life.and.Times.of.Ben.Bradlee.2017.1080p.AMZN.WEBRip.DD5.1.x264-QOQ 4.84GB-5.png 最危险的记者 The.Newspaperman.The.Life.and.Times.of.Ben.Bradlee.2017.1080p.AMZN.WEBRip.DD5.1.x264-QOQ 4.84GB-6.png 最危险的记者 The.Newspaperman.The.Life.and.Times.of.Ben.Bradlee.2017.1080p.AMZN.WEBRip.DD5.1.x264-QOQ 4.84GB-7.png






回复

使用道具 举报

懒得打字嘛,点击右侧快捷回复 【右侧内容,后台自定义】
您需要登录后才可以回帖 登录 | 立即加入

本版积分规则

Archiver|小黑屋| 蓝光电影网 |网站地图

Copyright © 2021 Comsenz Inc. Powered by 蓝光电影网

蓝光电影网

本站内容由用户自主分享和转载自互联网,转载目的在于传递更多信息,并不代表本网赞同其观点和对其真实性负责。

如有侵权、违反国家法律政策行为,请联系我们,我们会第一时间及时清除和处理!

举报反馈邮箱:[email protected]

快速回复 返回顶部 返回列表