找回密码

蓝光电影网

查看: 392|回复: 0

[爱情] 圣诞倒计时 The.Holiday.Calendar.2018.1080p.WEBRip.x264-NTROPiC 2.92GB

[复制链接]
蓝光币
1020
发表于 2020-2-1 15:25:04 | 显示全部楼层 |阅读模式
圣诞倒计时 The.Holiday.Calendar.2018.1080p.WEBRip.x264-NTROPiC 2.92GB-1.png

译  名 圣诞倒计时 / Christmas Calendar
片  名 The Holiday Calendar
年  代 2018
产  地 美国
类  别 恋爱
语  言 英语
上映日期 2018-11-02(法国)
IMDb评分  5.7/10 from 6825 users
IMDb链接  https://www.imdb.com/title/tt8262802
豆瓣评分 5.7/10 from 114 users
豆瓣链接 https://movie.douban.com/subject/30188465/
片  长 95分钟
导  演 布莱德利·沃尔什 Bradley Walsh
编  剧 Amyn Kaderali
主  演 卡特琳娜·格兰厄姆 Katerina Graham


标  签 圣诞 | 恋爱 | 美国 | 暖心 | 剧情 | Netflix | 2018 | 青春

简  介  

  《吸血鬼日志》女星卡特琳娜·格兰厄姆出演Netflix新片[圣诞日历](Christmas Calendar,暂译),导演布莱德利·沃尔什,故事围绕一个女摄影师获得一本可猜测未来的日历展开。
  1. Video
  2. ID                                       : 1
  3. Format                                   : AVC
  4. Format/Info                              : Advanced Video Codec
  5. Format profile                           : [email protected]
  6. Format settings                          : CABAC / 4 Ref Frames
  7. Format settings, CABAC                   : Yes
  8. Format settings, Reference frames        : 4 frames
  9. Codec ID                                 : V_MPEG4/ISO/AVC
  10. Duration                                 : 1 h 35 min
  11. Bit rate                                 : 4 017 kb/s
  12. Width                                    : 1 920 pixels
  13. Height                                   : 1 012 pixels
  14. Display aspect ratio                     : 1.897
  15. Frame rate mode                          : Constant
  16. Frame rate                               : 23.976 (24000/1001) FPS
  17. Color space                              : YUV
  18. Chroma subsampling                       : 4:2:0
  19. Bit depth                                : 8 bits
  20. Scan type                                : Progressive
  21. Bits/(Pixel*Frame)                       : 0.086
  22. Stream size                              : 2.67 GiB (91%)
  23. Writing library                          : x264 core 157 r2935 545de2f
  24. Encoding settings                        : cabac=1 / ref=4 / deblock=1:-3:-3 / analyse=0x3:0x113 / me=umh / subme=9 / psy=1 / psy_rd=1.00:0.00 / mixed_ref=1 / me_range=16 / chroma_me=1 / trellis=2 / 8x8dct=1 / cqm=0 / deadzone=21,11 / fast_pskip=0 / chroma_qp_offset=-4 / threads=18 / lookahead_threads=2 / sliced_threads=0 / nr=0 / decimate=1 / interlaced=0 / bluray_compat=0 / constrained_intra=0 / bframes=4 / b_pyramid=2 / b_adapt=2 / b_bias=0 / direct=3 / weightb=1 / open_gop=0 / weightp=2 / keyint=240 / keyint_min=23 / scenecut=40 / intra_refresh=0 / rc=crf / mbtree=0 / crf=21.5 / qcomp=0.60 / qpmin=0 / qpmax=69 / qpstep=4 / ip_ratio=1.40 / pb_ratio=1.30 / aq=1:1.00
  25. Default                                  : Yes
  26. Forced                                   : No

  27. Audio
  28. ID                                       : 2
  29. Format                                   : AC-3
  30. Format/Info                              : Audio Coding 3
  31. Commercial name                          : Dolby Digital
  32. Codec ID                                 : A_AC3
  33. Duration                                 : 1 h 35 min
  34. Bit rate mode                            : Constant
  35. Bit rate                                 : 384 kb/s
  36. Channel(s)                               : 6 channels
  37. Channel layout                           : L R C LFE Ls Rs
  38. Sampling rate                            : 48.0 kHz
  39. Frame rate                               : 31.250 FPS (1536 SPF)
  40. Compression mode                         : Lossy
  41. Stream size                              : 261 MiB (9%)
  42. Language                                 : English
  43. Service kind                             : Complete Main
  44. Default                                  : Yes
  45. Forced                                   : Yes

  46. Text #1
  47. ID                                       : 3
  48. Format                                   : UTF-8
  49. Codec ID                                 : S_TEXT/UTF8
  50. Codec ID/Info                            : UTF-8 Plain Text
  51. Duration                                 : 1 h 34 min
  52. Bit rate                                 : 80 b/s
  53. Count of elements                        : 1758
  54. Stream size                              : 55.5 KiB (0%)
  55. Language                                 : English
  56. Default                                  : No
  57. Forced                                   : No

  58. Text #2
  59. ID                                       : 4
  60. Format                                   : UTF-8
  61. Codec ID                                 : S_TEXT/UTF8
  62. Codec ID/Info                            : UTF-8 Plain Text
  63. Duration                                 : 1 h 31 min
  64. Bit rate                                 : 57 b/s
  65. Count of elements                        : 1533
  66. Stream size                              : 38.7 KiB (0%)
  67. Language                                 : Spanish
  68. Default                                  : Yes
  69. Forced                                   : No

  70. Text #3
  71. ID                                       : 5
  72. Format                                   : UTF-8
  73. Codec ID                                 : S_TEXT/UTF8
  74. Codec ID/Info                            : UTF-8 Plain Text
  75. Duration                                 : 1 h 34 min
  76. Bit rate                                 : 64 b/s
  77. Count of elements                        : 1539
  78. Stream size                              : 44.5 KiB (0%)
  79. Language                                 : French
  80. Default                                  : No
  81. Forced                                   : No

  82. Text #4
  83. ID                                       : 6
  84. Format                                   : UTF-8
  85. Codec ID                                 : S_TEXT/UTF8
  86. Codec ID/Info                            : UTF-8 Plain Text
  87. Duration                                 : 1 h 34 min
  88. Bit rate                                 : 53 b/s
  89. Count of elements                        : 1547
  90. Stream size                              : 37.0 KiB (0%)
  91. Language                                 : Italian
  92. Default                                  : No
  93. Forced                                   : No
复制代码

圣诞倒计时 The.Holiday.Calendar.2018.1080p.WEBRip.x264-NTROPiC 2.92GB-2.png






回复

使用道具 举报

懒得打字嘛,点击右侧快捷回复 【右侧内容,后台自定义】
您需要登录后才可以回帖 登录 | 立即加入

本版积分规则

Archiver|小黑屋| 蓝光电影网 |网站地图

Copyright © 2021 Comsenz Inc. Powered by 蓝光电影网

蓝光电影网

本站内容由用户自主分享和转载自互联网,转载目的在于传递更多信息,并不代表本网赞同其观点和对其真实性负责。

如有侵权、违反国家法律政策行为,请联系我们,我们会第一时间及时清除和处理!

举报反馈邮箱:[email protected]

快速回复 返回顶部 返回列表