找回密码

蓝光电影网

查看: 295|回复: 0

[喜剧] 烂仔帮 Frat.Pack.2018.1080p.WEB-DL.DD5.1.H264-FGT 3.55GB

[复制链接]
蓝光币
1022
发表于 2020-2-1 15:26:58 | 显示全部楼层 |阅读模式
烂仔帮 Frat.Pack.2018.1080p.WEB-DL.DD5.1.H264-FGT 3.55GB-1.png

译  名 烂仔帮
片  名 Frat Pack
年  代 2016
产  地 美国 / 加拿大
类  别 笑剧
语  言 英语
上映日期 2018-06-19(美国)
IMDb评分  3.8/10 from 333 users
IMDb链接  https://www.imdb.com/title/tt5051826
豆瓣评分 0/10 from 0 users
豆瓣链接 https://movie.douban.com/subject/26746990/
片  长 95分钟
导  演 Michael Philip
编  剧 瑞德·李察 Richard Reid / Rachel Risen
主  演 瑞德·李察 Richard Reid
       罗伯特·克耐普 Robert Knepper
       丹尼·特雷霍 Danny Trejo
       比佛莉·德安姬罗 Beverly D'Angelo
       史蒂芬 科里蒂 Stephen Colletti
       洛奇林·莫罗 Lochlyn Munro
       凯文·P·法利 Kevin P. Farley
       欧勒格·塔克塔罗夫 Oleg Taktarov
       Hana Mae Lee
       Lisa De Razzo
       Tommy Davidson
       Harvey Guillen


标  签 美国 | 笑剧 | 犯罪 | 剧情

简  介  

  A shy British graduate gets dragged on a wild road trip across America to a raging fraternity party by his soon-to-be stepbrothers, as his mother marries into a larger-than-life, all American family. (His worst nightmare)
  1. Video
  2. ID                                       : 1
  3. Format                                   : AVC
  4. Format/Info                              : Advanced Video Codec
  5. Format profile                           : [email protected]
  6. Format settings                          : CABAC / 4 Ref Frames
  7. Format settings, CABAC                   : Yes
  8. Format settings, Reference frames        : 4 frames
  9. Codec ID                                 : V_MPEG4/ISO/AVC
  10. Duration                                 : 1 h 32 min
  11. Bit rate                                 : 5 128 kb/s
  12. Width                                    : 1 908 pixels
  13. Height                                   : 1 068 pixels
  14. Display aspect ratio                     : 16:9
  15. Frame rate mode                          : Constant
  16. Frame rate                               : 23.976 FPS
  17. Color space                              : YUV
  18. Chroma subsampling                       : 4:2:0
  19. Bit depth                                : 8 bits
  20. Scan type                                : Progressive
  21. Bits/(Pixel*Frame)                       : 0.105
  22. Stream size                              : 3.30 GiB (93%)
  23. Title                                    : Frat.Pack.2018.1080p.WEB-DL.DD5.1.H264-FGT
  24. Language                                 : English
  25. Default                                  : Yes
  26. Forced                                   : No
  27. Color range                              : Limited
  28. Color primaries                          : BT.709
  29. Transfer characteristics                 : BT.709
  30. Matrix coefficients                      : BT.709

  31. Audio
  32. ID                                       : 2
  33. Format                                   : AC-3
  34. Format/Info                              : Audio Coding 3
  35. Commercial name                          : Dolby Digital
  36. Codec ID                                 : A_AC3
  37. Duration                                 : 1 h 32 min
  38. Bit rate mode                            : Constant
  39. Bit rate                                 : 384 kb/s
  40. Channel(s)                               : 6 channels
  41. Channel layout                           : L R C LFE Ls Rs
  42. Sampling rate                            : 48.0 kHz
  43. Frame rate                               : 31.250 FPS (1536 SPF)
  44. Compression mode                         : Lossy
  45. Stream size                              : 253 MiB (7%)
  46. Title                                    : Frat.Pack.2018.1080p.WEB-DL.DD5.1.H264-FGT
  47. Language                                 : English
  48. Service kind                             : Complete Main
  49. Default                                  : Yes
  50. Forced                                   : No

  51. Menu
  52. 00:00:00.000                             : en:1
  53. 00:01:40.000                             : en:2
  54. 00:12:17.000                             : en:3
  55. 00:24:59.000                             : en:4
  56. 00:32:33.000                             : en:5
  57. 00:43:06.000                             : en:6
  58. 00:57:03.000                             : en:7
  59. 01:06:09.000                             : en:8
  60. 01:17:40.000                             : en:9
  61. 01:28:22.000                             : en:10
复制代码

烂仔帮 Frat.Pack.2018.1080p.WEB-DL.DD5.1.H264-FGT 3.55GB-2.png 烂仔帮 Frat.Pack.2018.1080p.WEB-DL.DD5.1.H264-FGT 3.55GB-3.png 烂仔帮 Frat.Pack.2018.1080p.WEB-DL.DD5.1.H264-FGT 3.55GB-4.png






回复

使用道具 举报

懒得打字嘛,点击右侧快捷回复 【右侧内容,后台自定义】
您需要登录后才可以回帖 登录 | 立即加入

本版积分规则

Archiver|小黑屋| 蓝光电影网 |网站地图

Copyright © 2021 Comsenz Inc. Powered by 蓝光电影网

蓝光电影网

本站内容由用户自主分享和转载自互联网,转载目的在于传递更多信息,并不代表本网赞同其观点和对其真实性负责。

如有侵权、违反国家法律政策行为,请联系我们,我们会第一时间及时清除和处理!

举报反馈邮箱:[email protected]

快速回复 返回顶部 返回列表