找回密码

蓝光电影网

查看: 99|回复: 0

[恐怖] 千万别睁眼 Dont.Open.Your.Eyes.2018.1080p.WEB-DL.AAC2.0.H264-FGT 2.83GB

[复制链接]
蓝光币
886
发表于 2020-2-1 15:29:53 | 显示全部楼层 |阅读模式
万万别睁眼 Dont.Open.Your.Eyes.2018.1080p.WEB-DL.AAC2.0.H264-FGT 2.83GB-1.png

译  名 万万别睁眼
片  名 Don't Open Your Eyes
年  代 2018
产  地 美国
类  别 可骇
语  言 英语
上映日期 2018-10-31(美国)
IMDb评分  3.2/10 from 159 users
IMDb链接  https://www.imdb.com/title/tt2987806
豆瓣评分 0/10 from 0 users
豆瓣链接 https://movie.douban.com/subject/30316460/
片  长 105分钟
导  演 Dmitry Yun
编  剧 Dmitry Yun
主  演 Tom Kemnitz Jr.
       Gergana Mellin
       Jamie Carroll


标  签 可骇 | 美国 | 灵异 | 2018 | 恶魔/驱魔系列 | 电影 | 烂 | 惊悚

简  介  

  A home-care nurse takes a job, but as it proves to be his toughest yet; he is inadvertently pulled into something much more sinister.
  1. Video
  2. ID                                       : 1
  3. Format                                   : AVC
  4. Format/Info                              : Advanced Video Codec
  5. Format profile                           : [email protected]
  6. Format settings                          : CABAC / 5 Ref Frames
  7. Format settings, CABAC                   : Yes
  8. Format settings, Reference frames        : 5 frames
  9. Codec ID                                 : V_MPEG4/ISO/AVC
  10. Duration                                 : 1 h 26 min
  11. Bit rate                                 : 4 527 kb/s
  12. Width                                    : 1 920 pixels
  13. Height                                   : 792 pixels
  14. Display aspect ratio                     : 2.40:1
  15. Frame rate mode                          : Constant
  16. Frame rate                               : 23.976 FPS
  17. Color space                              : YUV
  18. Chroma subsampling                       : 4:2:0
  19. Bit depth                                : 8 bits
  20. Scan type                                : Progressive
  21. Bits/(Pixel*Frame)                       : 0.124
  22. Stream size                              : 2.75 GiB (97%)
  23. Title                                    : Dont.Open.Your.Eyes.2018.1080p.WEB-DL.AAC2.0.H264-FGT
  24. Language                                 : English
  25. Default                                  : Yes
  26. Forced                                   : No
  27. Color range                              : Limited
  28. Color primaries                          : BT.709
  29. Transfer characteristics                 : BT.709
  30. Matrix coefficients                      : BT.709

  31. Audio
  32. ID                                       : 2
  33. Format                                   : AAC LC
  34. Format/Info                              : Advanced Audio Codec Low Complexity
  35. Codec ID                                 : A_AAC-2
  36. Duration                                 : 1 h 26 min
  37. Bit rate                                 : 127 kb/s
  38. Channel(s)                               : 2 channels
  39. Channel layout                           : L R
  40. Sampling rate                            : 48.0 kHz
  41. Frame rate                               : 46.875 FPS (1024 SPF)
  42. Compression mode                         : Lossy
  43. Stream size                              : 78.8 MiB (3%)
  44. Title                                    : Dont.Open.Your.Eyes.2018.1080p.WEB-DL.AAC2.0.H264-FGT
  45. Language                                 : English
  46. Default                                  : Yes
  47. Forced                                   : No

  48. Menu
  49. 00:00:00.000                             : en:1
  50. 00:05:38.000                             : en:2
  51. 00:11:17.000                             : en:3
  52. 00:17:36.000                             : en:4
  53. 00:22:03.000                             : en:5
  54. 00:28:06.000                             : en:6
  55. 00:35:04.000                             : en:7
  56. 00:39:01.000                             : en:8
  57. 00:46:04.000                             : en:9
  58. 00:51:26.000                             : en:10
  59. 00:56:27.000                             : en:11
  60. 01:02:05.000                             : en:12
  61. 01:07:42.000                             : en:13
  62. 01:13:24.000                             : en:14
  63. 01:19:01.000                             : en:15
  64. 01:24:35.000                             : en:16
复制代码

万万别睁眼 Dont.Open.Your.Eyes.2018.1080p.WEB-DL.AAC2.0.H264-FGT 2.83GB-2.png 万万别睁眼 Dont.Open.Your.Eyes.2018.1080p.WEB-DL.AAC2.0.H264-FGT 2.83GB-3.png 万万别睁眼 Dont.Open.Your.Eyes.2018.1080p.WEB-DL.AAC2.0.H264-FGT 2.83GB-4.png






回复

使用道具 举报

懒得打字嘛,点击右侧快捷回复 【右侧内容,后台自定义】
您需要登录后才可以回帖 登录 | 立即加入

本版积分规则

Archiver|小黑屋| 蓝光电影网 |网站地图

Copyright © 2021 Comsenz Inc. Powered by 蓝光电影网

蓝光电影网

本站内容由用户自主分享和转载自互联网,转载目的在于传递更多信息,并不代表本网赞同其观点和对其真实性负责。

如有侵权、违反国家法律政策行为,请联系我们,我们会第一时间及时清除和处理!

举报反馈邮箱:[email protected]

快速回复 返回顶部 返回列表