找回密码

蓝光电影网

查看: 93|回复: 0

[剧情] 时光中的一日 Day.of.Days.2017.1080p.WEB-DL.DD5.1.H264-FGT 4.14GB

[复制链接]
蓝光币
886
发表于 2020-2-1 15:31:18 | 显示全部楼层 |阅读模式
MV5BOTNjMWE1NWUtNjBjYy00YWRlLWFiZmUtMjNlYzljMGNiZmYzL2ltYWdlXkEyXkFqcGdeQXVyNjA3.jpg

译  名 时光中的一日
片  名 Day of Days
年  代 2017
产  地 美国
语  言 英语
上映日期 2017-08-15(美国)
IMDb评分  4.4/10 from 49 users
IMDb链接  https://www.imdb.com/title/tt3779382
豆瓣评分 0/10 from 0 users
豆瓣链接 https://movie.douban.com/subject/27123667/
导  演 基姆贝斯 Kim Bass
编  剧 基姆贝斯 Kim Bass / Kyle Bass
主  演 汤姆·斯凯里特 Tom Skerritt
       Claudia Zevallos


简  介  

  A reclusive, God-fearing 91-year-old man and a young Cuban refugee home-aid worker struggle to come to terms with their regrets, the unbearable pain of unacceptable loss, love and the most difficult and beautiful of human truths: life ends and life goes on.
  1. Video
  2. ID                                       : 1
  3. Format                                   : AVC
  4. Format/Info                              : Advanced Video Codec
  5. Format profile                           : [email protected]
  6. Format settings                          : CABAC / 4 Ref Frames
  7. Format settings, CABAC                   : Yes
  8. Format settings, Reference frames        : 4 frames
  9. Codec ID                                 : V_MPEG4/ISO/AVC
  10. Duration                                 : 1 h 47 min
  11. Bit rate                                 : 5 151 kb/s
  12. Width                                    : 1 916 pixels
  13. Height                                   : 1 076 pixels
  14. Display aspect ratio                     : 16:9
  15. Frame rate mode                          : Constant
  16. Frame rate                               : 23.976 (23976/1000) FPS
  17. Color space                              : YUV
  18. Chroma subsampling                       : 4:2:0
  19. Bit depth                                : 8 bits
  20. Scan type                                : Progressive
  21. Bits/(Pixel*Frame)                       : 0.104
  22. Stream size                              : 3.85 GiB (93%)
  23. Title                                    : Day.of.Days.2017.1080p.WEB-DL.DD5.1.H.264-FGT
  24. Language                                 : English
  25. Default                                  : Yes
  26. Forced                                   : No
  27. Color range                              : Limited
  28. Color primaries                          : BT.709
  29. Transfer characteristics                 : BT.709
  30. Matrix coefficients                      : BT.709

  31. Audio
  32. ID                                       : 2
  33. Format                                   : AC-3
  34. Format/Info                              : Audio Coding 3
  35. Commercial name                          : Dolby Digital
  36. Codec ID                                 : A_AC3
  37. Duration                                 : 1 h 47 min
  38. Bit rate mode                            : Constant
  39. Bit rate                                 : 384 kb/s
  40. Channel(s)                               : 6 channels
  41. Channel layout                           : L R C LFE Ls Rs
  42. Sampling rate                            : 48.0 kHz
  43. Frame rate                               : 31.250 FPS (1536 SPF)
  44. Compression mode                         : Lossy
  45. Stream size                              : 294 MiB (7%)
  46. Title                                    : Day.of.Days.2017.1080p.WEB-DL.DD5.1.H.264-FGT
  47. Language                                 : English
  48. Service kind                             : Complete Main
  49. Default                                  : Yes
  50. Forced                                   : No

  51. Text
  52. ID                                       : 3
  53. Format                                   : UTF-8
  54. Codec ID                                 : S_TEXT/UTF8
  55. Codec ID/Info                            : UTF-8 Plain Text
  56. Duration                                 : 1 h 46 min
  57. Bit rate                                 : 48 b/s
  58. Count of elements                        : 1389
  59. Stream size                              : 37.7 KiB (0%)
  60. Language                                 : English
  61. Default                                  : Yes
  62. Forced                                   : No

  63. Menu
  64. 00:00:00.000                             : en:Chapter 1
  65. 00:09:39.000                             : en:Chapter 2
  66. 00:19:29.000                             : en:Chapter 3
  67. 00:24:21.000                             : en:Chapter 4
  68. 00:35:52.000                             : en:Chapter 5
  69. 00:47:13.000                             : en:Chapter 6
  70. 00:56:04.000                             : en:Chapter 7
  71. 01:11:03.000                             : en:Chapter 8
  72. 01:16:00.000                             : en:Chapter 9
  73. 01:22:50.000                             : en:Chapter 10
  74. 01:32:27.000                             : en:Chapter 11
  75. 01:40:47.000                             : en:Chapter 12
复制代码

时光中的一日 Day.of.Days.2017.1080p.WEB-DL.DD5.1.H264-FGT 4.14GB-1.png 时光中的一日 Day.of.Days.2017.1080p.WEB-DL.DD5.1.H264-FGT 4.14GB-2.png 时光中的一日 Day.of.Days.2017.1080p.WEB-DL.DD5.1.H264-FGT 4.14GB-3.png






回复

使用道具 举报

懒得打字嘛,点击右侧快捷回复 【右侧内容,后台自定义】
您需要登录后才可以回帖 登录 | 立即加入

本版积分规则

Archiver|小黑屋| 蓝光电影网 |网站地图

Copyright © 2021 Comsenz Inc. Powered by 蓝光电影网

蓝光电影网

本站内容由用户自主分享和转载自互联网,转载目的在于传递更多信息,并不代表本网赞同其观点和对其真实性负责。

如有侵权、违反国家法律政策行为,请联系我们,我们会第一时间及时清除和处理!

举报反馈邮箱:[email protected]

快速回复 返回顶部 返回列表