找回密码

蓝光电影网

查看: 218|回复: 0

[惊悚] 骇杀边缘/疑情追踪 Borderline.2002.1080p.WEB-DL.DD5.1.H264-FGT 3.61GB

[复制链接]
蓝光币
1022
发表于 2020-2-1 15:33:55 | 显示全部楼层 |阅读模式
骇杀边沿/疑情追踪 Borderline.2002.1080p.WEB-DL.DD5.1.H264-FGT 3.61GB-1.png

译  名 骇杀边沿 / 疑情追踪
片  名 Borderline
年  代 2002
产  地 美国 / 德国
类  别 剧情 / 惊悚 / 犯罪
语  言 英语
上映日期 2002-11-15
IMDb评分  5.3/10 from 1167 users
IMDb链接  https://www.imdb.com/title/tt0315312
豆瓣评分 6.3/10 from 734 users
豆瓣链接 https://movie.douban.com/subject/1304929/
片  长 94 分钟
导  演 Evelyn Purcell
编  剧 Jon Connolly (David Loucka)
主  演 吉娜·格申 Gina Gershon
       迈克尔·比恩 Michael Biehn
       肖恩·派特里克·弗兰纳里 Sean Patrick Flanery
       Eddie Driscoll
       Jon Huertas


标  签 犯罪 | 2002 | 邊緣型品德 | 美国 | action | zk | crime | AXN

简  介  

  莉拉(吉娜·格申 Gina Gershon 饰)是一位心理医生,在奇迹上,莉拉精明强干,经历丰富,但是,她却没法治疗自己的芥蒂。莉拉的婚姻遭受了严重危机,更糟糕的是,她也许行将再也见不到她挚爱的两个孩子了。
  已经,莉拉在牢狱里为犯人艾德(肖恩·派特里克·弗兰纳里 Sean Patrick Flanery 饰)做过心理教导,帮助艾德度过了难关,现在,艾德出狱,为了报答莉拉昔时的恩典,他居然杀死了莉拉的前夫保罗(Nick Boraine 饰)。莉拉所表示出来的拒绝的态度惹恼了艾德,他居然将杀死保罗的罪行栽赃到了莉拉的头上。面临这糟糕的景况,莉拉该若何才能逃走艾德的魔爪,而且证实自己的明净呢?
  1. Video
  2. ID                                       : 1
  3. Format                                   : AVC
  4. Format/Info                              : Advanced Video Codec
  5. Format profile                           : [email protected]
  6. Format settings                          : CABAC / 4 Ref Frames
  7. Format settings, CABAC                   : Yes
  8. Format settings, Reference frames        : 4 frames
  9. Codec ID                                 : V_MPEG4/ISO/AVC
  10. Duration                                 : 1 h 34 min
  11. Bit rate                                 : 4 996 kb/s
  12. Width                                    : 1 918 pixels
  13. Height                                   : 1 080 pixels
  14. Display aspect ratio                     : 16:9
  15. Frame rate mode                          : Constant
  16. Frame rate                               : 23.976 (24000/1001) FPS
  17. Color space                              : YUV
  18. Chroma subsampling                       : 4:2:0
  19. Bit depth                                : 8 bits
  20. Scan type                                : Progressive
  21. Bits/(Pixel*Frame)                       : 0.101
  22. Stream size                              : 3.28 GiB (91%)
  23. Title                                    : Borderline.2002.1080p.WEB-DL.DD5.1.H264-FGT
  24. Language                                 : English
  25. Default                                  : Yes
  26. Forced                                   : No
  27. Color range                              : Limited
  28. Color primaries                          : BT.709
  29. Transfer characteristics                 : BT.709
  30. Matrix coefficients                      : BT.709

  31. Audio
  32. ID                                       : 2
  33. Format                                   : AC-3
  34. Format/Info                              : Audio Coding 3
  35. Commercial name                          : Dolby Digital
  36. Codec ID                                 : A_AC3
  37. Duration                                 : 1 h 34 min
  38. Bit rate mode                            : Constant
  39. Bit rate                                 : 384 kb/s
  40. Channel(s)                               : 6 channels
  41. Channel layout                           : L R C LFE Ls Rs
  42. Sampling rate                            : 48.0 kHz
  43. Frame rate                               : 31.250 FPS (1536 SPF)
  44. Compression mode                         : Lossy
  45. Stream size                              : 258 MiB (7%)
  46. Title                                    : Borderline.2002.1080p.WEB-DL.DD5.1.H264-FGT
  47. Language                                 : English
  48. Service kind                             : Complete Main
  49. Default                                  : Yes
  50. Forced                                   : No

  51. Menu
  52. 00:00:00.000                             : en:1
  53. 00:06:11.000                             : en:2
  54. 00:11:32.000                             : en:3
  55. 00:18:24.000                             : en:4
  56. 00:23:22.000                             : en:5
  57. 00:29:20.000                             : en:6
  58. 00:35:44.000                             : en:7
  59. 00:41:30.000                             : en:8
  60. 00:46:47.000                             : en:9
  61. 00:52:49.000                             : en:10
  62. 00:58:47.000                             : en:11
  63. 01:05:04.000                             : en:12
  64. 01:10:56.000                             : en:13
  65. 01:16:58.000                             : en:14
  66. 01:21:50.000                             : en:15
  67. 01:29:14.000                             : en:16
复制代码

骇杀边沿/疑情追踪 Borderline.2002.1080p.WEB-DL.DD5.1.H264-FGT 3.61GB-1.png 骇杀边沿/疑情追踪 Borderline.2002.1080p.WEB-DL.DD5.1.H264-FGT 3.61GB-3.png 骇杀边沿/疑情追踪 Borderline.2002.1080p.WEB-DL.DD5.1.H264-FGT 3.61GB-4.png 骇杀边沿/疑情追踪 Borderline.2002.1080p.WEB-DL.DD5.1.H264-FGT 3.61GB-5.png 骇杀边沿/疑情追踪 Borderline.2002.1080p.WEB-DL.DD5.1.H264-FGT 3.61GB-6.png 骇杀边沿/疑情追踪 Borderline.2002.1080p.WEB-DL.DD5.1.H264-FGT 3.61GB-7.png






回复

使用道具 举报

懒得打字嘛,点击右侧快捷回复 【右侧内容,后台自定义】
您需要登录后才可以回帖 登录 | 立即加入

本版积分规则

Archiver|小黑屋| 蓝光电影网 |网站地图

Copyright © 2021 Comsenz Inc. Powered by 蓝光电影网

蓝光电影网

本站内容由用户自主分享和转载自互联网,转载目的在于传递更多信息,并不代表本网赞同其观点和对其真实性负责。

如有侵权、违反国家法律政策行为,请联系我们,我们会第一时间及时清除和处理!

举报反馈邮箱:[email protected]

快速回复 返回顶部 返回列表