找回密码

蓝光电影网

查看: 673|回复: 1

[动作] 武装 Armed.2018.1080p.WEB-DL.DD5.1.H264-FGT 4.17GB

[复制链接]
蓝光币
886
发表于 2020-2-1 15:36:01 | 显示全部楼层 |阅读模式
武装 Armed.2018.1080p.WEB-DL.DD5.1.H264-FGT 4.17GB-1.png

译  名 武装 / If / 假如
片  名 Armed
年  代 2018
产  地 美国
类  别 行动 / 惊悚
语  言 英语
上映日期 2018-09-14(美国视频点播平台上线及小范围放映)
IMDb评分  3.3/10 from 384 users
IMDb链接  https://www.imdb.com/title/tt4824316
豆瓣评分 0/10 from 0 users
豆瓣链接 https://movie.douban.com/subject/30149887/
片  长 118分钟
导  演 马里奥·范·皮布尔斯 Mario Van Peebles
编  剧 马里奥·范·皮布尔斯 Mario Van Peebles
主  演 马里奥·范·皮布尔斯 Mario Van Peebles
       瑞安·古兹曼 Ryan Guzman
       哥伦布·绍特 Columbus Short
       杰玛·达兰德 Jemma Dallender
       布拉德·卡特 Brad Carter
       莱恩·加里逊 Lane Garrison
       迪昂妮·沃威克 Dionne Warwick
       马文·范·皮伯斯 Melvin Van Peebles
       罗兰·马丁 Roland Martin
       Rocsi
       保罗·罗德里奇斯 Paul Rodriguez
       威廉·菲德内尔 William Fichtner
       拉兹·阿隆索 Laz Alonso
       尤金·科德罗 Eugene Cordero
       查尔斯·哈尔福德 Charles Halford


标  签 美国 | 犯罪 | 阿琳娜·萨沃斯提科娃 | 未下载 | [歐美] | RyanGuzman | 2018

简  介  

  一个前美国警官正艰难地试图在一路案子出现庞大毛病以后重整生活。一个前同事再次出现在了他的生活当中,并向他诠释了他的部分的一切幸存者都受着这类症状的熬煎。同时,这件事的背后还能够有一个庞大的诡计......
  1. Video
  2. ID                                       : 1
  3. Format                                   : AVC
  4. Format/Info                              : Advanced Video Codec
  5. Format profile                           : [email protected]
  6. Format settings                          : CABAC / 5 Ref Frames
  7. Format settings, CABAC                   : Yes
  8. Format settings, Reference frames        : 5 frames
  9. Codec ID                                 : V_MPEG4/ISO/AVC
  10. Duration                                 : 2 h 0 min
  11. Bit rate                                 : 4 587 kb/s
  12. Width                                    : 1 916 pixels
  13. Height                                   : 796 pixels
  14. Display aspect ratio                     : 2.40:1
  15. Frame rate mode                          : Constant
  16. Frame rate                               : 23.976 (23976/1000) FPS
  17. Color space                              : YUV
  18. Chroma subsampling                       : 4:2:0
  19. Bit depth                                : 8 bits
  20. Scan type                                : Progressive
  21. Bits/(Pixel*Frame)                       : 0.125
  22. Stream size                              : 3.85 GiB (92%)
  23. Title                                    : Armed.2018.1080p.WEB-DL.DD5.1.H264-FGT
  24. Language                                 : English
  25. Default                                  : Yes
  26. Forced                                   : No
  27. Color range                              : Limited
  28. Color primaries                          : BT.709
  29. Transfer characteristics                 : BT.709
  30. Matrix coefficients                      : BT.709

  31. Audio
  32. ID                                       : 2
  33. Format                                   : AC-3
  34. Format/Info                              : Audio Coding 3
  35. Commercial name                          : Dolby Digital
  36. Codec ID                                 : A_AC3
  37. Duration                                 : 2 h 0 min
  38. Bit rate mode                            : Constant
  39. Bit rate                                 : 384 kb/s
  40. Channel(s)                               : 6 channels
  41. Channel layout                           : L R C LFE Ls Rs
  42. Sampling rate                            : 48.0 kHz
  43. Frame rate                               : 31.250 FPS (1536 SPF)
  44. Compression mode                         : Lossy
  45. Stream size                              : 330 MiB (8%)
  46. Title                                    : Armed.2018.1080p.WEB-DL.DD5.1.H264-FGT
  47. Language                                 : English
  48. Service kind                             : Complete Main
  49. Default                                  : Yes
  50. Forced                                   : No

  51. Menu
  52. 00:00:00.000                             : en:1
  53. 00:03:46.601                             : en:2
  54. 00:16:45.463                             : en:3
  55. 00:23:54.683                             : en:4
  56. 00:30:38.920                             : en:5
  57. 00:39:44.257                             : en:6
  58. 00:46:54.812                             : en:7
  59. 00:52:34.860                             : en:8
  60. 01:03:22.799                             : en:9
  61. 01:07:37.261                             : en:10
  62. 01:16:53.442                             : en:11
  63. 01:22:45.168                             : en:12
  64. 01:31:31.068                             : en:13
  65. 01:41:56.610                             : en:14
  66. 01:46:42.437                             : en:15
  67. 01:53:40.229                             : en:16
复制代码

武装 Armed.2018.1080p.WEB-DL.DD5.1.H264-FGT 4.17GB-2.png 武装 Armed.2018.1080p.WEB-DL.DD5.1.H264-FGT 4.17GB-3.png 武装 Armed.2018.1080p.WEB-DL.DD5.1.H264-FGT 4.17GB-4.png






回复

使用道具 举报

蓝光币
1935
发表于 2020-2-1 18:05:13 | 显示全部楼层

这个帖子不回对不起自己!我想我是一天也不能离开蓝光电影网
回复 支持 反对

使用道具 举报

懒得打字嘛,点击右侧快捷回复 【右侧内容,后台自定义】
您需要登录后才可以回帖 登录 | 立即加入

本版积分规则

Archiver|小黑屋| 蓝光电影网 |网站地图

Copyright © 2021 Comsenz Inc. Powered by 蓝光电影网

蓝光电影网

本站内容由用户自主分享和转载自互联网,转载目的在于传递更多信息,并不代表本网赞同其观点和对其真实性负责。

如有侵权、违反国家法律政策行为,请联系我们,我们会第一时间及时清除和处理!

举报反馈邮箱:[email protected]

快速回复 返回顶部 返回列表