找回密码

蓝光电影网

查看: 416|回复: 0

[冒险] 大象之旅/菲尼克斯韦尔德和巨象历险记 An.Elephants.Journey.2017.1080p.WEB-DL.DD5.1.H264-FGT 3.48GB

[复制链接]
蓝光币
886
发表于 2020-2-1 15:36:58 | 显示全部楼层 |阅读模式
大象之旅/菲尼克斯韦尔德和巨象历险记 An.Elephants.Journey.2017.1080p.WEB-DL.DD5.1.H264-FGT 3.48GB-1.png

译  名 大象之旅 / 菲尼克斯韦尔德和巨象历险记
片  名 Phoenix Wilder and the Great Elephant Adventure
年  代 2017
产  地 加拿大 / 南非
类  别 冒险
语  言 英语
上映日期 2018-04-16(美国)
IMDb评分  5.1/10 from 363 users
IMDb链接  https://www.imdb.com/title/tt6849128
豆瓣评分 0/10 from 0 users
豆瓣链接 https://movie.douban.com/subject/30193697/
片  长 87分钟(美国)
导  演 Richard Boddington
编  剧 Richard Boddington
主  演 Elizabeth Hurley
       Sam Ashe Arnold
       Tertius Meintjes
       Hlomla Dandala
       Louis Minnaar


标  签 南非 | 2017 | 聪明大象 | 励志 | 加拿大 | 2010s

简  介  

  一个失落的孤儿男孩和一头大象联手匹敌一个大象偷猎团伙
  1. Video
  2. ID                                       : 1
  3. Format                                   : AVC
  4. Format/Info                              : Advanced Video Codec
  5. Format profile                           : [email protected]
  6. Format settings                          : CABAC / 4 Ref Frames
  7. Format settings, CABAC                   : Yes
  8. Format settings, Reference frames        : 4 frames
  9. Codec ID                                 : V_MPEG4/ISO/AVC
  10. Duration                                 : 1 h 30 min
  11. Bit rate                                 : 5 143 kb/s
  12. Width                                    : 1 908 pixels
  13. Height                                   : 1 068 pixels
  14. Display aspect ratio                     : 16:9
  15. Frame rate mode                          : Constant
  16. Frame rate                               : 23.976 (24000/1001) FPS
  17. Color space                              : YUV
  18. Chroma subsampling                       : 4:2:0
  19. Bit depth                                : 8 bits
  20. Scan type                                : Progressive
  21. Bits/(Pixel*Frame)                       : 0.105
  22. Stream size                              : 3.24 GiB (93%)
  23. Title                                    : An.Elephants.Journey.2018.1080p.WEB-DL.DD5.1.H264-FGT
  24. Language                                 : English
  25. Default                                  : Yes
  26. Forced                                   : No
  27. Color range                              : Limited
  28. Color primaries                          : BT.709
  29. Transfer characteristics                 : BT.709
  30. Matrix coefficients                      : BT.709

  31. Audio
  32. ID                                       : 2
  33. Format                                   : AC-3
  34. Format/Info                              : Audio Coding 3
  35. Commercial name                          : Dolby Digital
  36. Codec ID                                 : A_AC3
  37. Duration                                 : 1 h 30 min
  38. Bit rate mode                            : Constant
  39. Bit rate                                 : 384 kb/s
  40. Channel(s)                               : 6 channels
  41. Channel layout                           : L R C LFE Ls Rs
  42. Sampling rate                            : 48.0 kHz
  43. Frame rate                               : 31.250 FPS (1536 SPF)
  44. Compression mode                         : Lossy
  45. Stream size                              : 247 MiB (7%)
  46. Title                                    : An.Elephants.Journey.2018.1080p.WEB-DL.DD5.1.H264-FGT
  47. Language                                 : English
  48. Service kind                             : Complete Main
  49. Default                                  : Yes
  50. Forced                                   : No

  51. Menu
  52. 00:00:00.000                             : en:1
  53. 00:03:00.000                             : en:2
  54. 00:12:05.000                             : en:3
  55. 00:23:32.000                             : en:4
  56. 00:33:20.000                             : en:5
  57. 00:43:47.000                             : en:6
  58. 00:54:46.000                             : en:7
  59. 01:04:51.000                             : en:8
  60. 01:15:03.000                             : en:9
  61. 01:28:05.000                             : en:10
复制代码

大象之旅/菲尼克斯韦尔德和巨象历险记 An.Elephants.Journey.2017.1080p.WEB-DL.DD5.1.H264-FGT 3.48GB-2.png 大象之旅/菲尼克斯韦尔德和巨象历险记 An.Elephants.Journey.2017.1080p.WEB-DL.DD5.1.H264-FGT 3.48GB-3.png 大象之旅/菲尼克斯韦尔德和巨象历险记 An.Elephants.Journey.2017.1080p.WEB-DL.DD5.1.H264-FGT 3.48GB-4.png






回复

使用道具 举报

懒得打字嘛,点击右侧快捷回复 【右侧内容,后台自定义】
您需要登录后才可以回帖 登录 | 立即加入

本版积分规则

Archiver|小黑屋| 蓝光电影网 |网站地图

Copyright © 2021 Comsenz Inc. Powered by 蓝光电影网

蓝光电影网

本站内容由用户自主分享和转载自互联网,转载目的在于传递更多信息,并不代表本网赞同其观点和对其真实性负责。

如有侵权、违反国家法律政策行为,请联系我们,我们会第一时间及时清除和处理!

举报反馈邮箱:[email protected]

快速回复 返回顶部 返回列表