找回密码

蓝光电影网

查看: 566|回复: 1

[剧情] 有熊谷守一在的地方 Mori.The.Artists.Habitat.2018.JAPANESE.1080p.BluRay.x264-iKiW 9.00GB

[复制链接]
蓝光币
1020
发表于 2020-2-1 17:53:52 | 显示全部楼层 |阅读模式
有熊谷守一在的地方 Mori.The.Artists.Habitat.2018.JAPANESE.1080p.BluRay.x264-iKiW 9.00GB-1.png

译  名 有熊谷守一在的地方 / Mori, The Artist's Habitat / 仙人画家:熊谷守一(台) / 綠野仙師 : 熊谷守一(港)
片  名 モリのいる場所
年  代 2018
产  地 日本
类  别 剧情
语  言 日语
上映日期 2018-04-10(北京电影节) / 2018-05-19(日本)
IMDb评分  7.0/10 from 159 users
IMDb链接  https://www.imdb.com/title/tt7408776
豆瓣评分 8.3/10 from 13327 users
豆瓣链接 https://movie.douban.com/subject/27147739/
片  长 99分钟
导  演 冲田修一 Sh?ichi Okita
编  剧 冲田修一 Sh?ichi Okita
主  演 山崎努 Tsutomu Yamazaki
       树木希林 Kirin Kiki
       加濑亮 Ryo Kase
       吉村界人 Kaito Yoshimura
       光石研 Ken Mitsuishi
       青木高尚 Munetaka Aoki
       吹越满 Mitsuru Fukikoshi


标  签 日本 | 列传 | 艺术 | 2018 | 温情 | 人生 | 文艺 | 剧情

简  介  

  在日本美术史上,熊谷守一被以为是野兽主义画家,他身世敷裕却过着清贫生活,获誉“画坛仙人”。影片报告了熊谷守一30年几近不出门,在家创作“仙人物语”的故事。山崎努和树木希林两位驰骋日本影坛几十余年的老戏骨演起列传片来游刃不足,名导冲田修一不改暖和本质。

获奖情况  

  第43届报知映画赏(2018)
  最好女配角 树木希林

  第5届豆瓣电影年度榜单(2018)
  评分最高的日本电影(提名)
  1. Video
  2. ID                                       : 1
  3. Format                                   : AVC
  4. Format/Info                              : Advanced Video Codec
  5. Format profile                           : [email protected]
  6. Format settings                          : CABAC / 4 Ref Frames
  7. Format settings, CABAC                   : Yes
  8. Format settings, Reference frames        : 4 frames
  9. Codec ID                                 : V_MPEG4/ISO/AVC
  10. Duration                                 : 1 h 39 min
  11. Bit rate                                 : 12.3 Mb/s
  12. Width                                    : 1 920 pixels
  13. Height                                   : 1 036 pixels
  14. Display aspect ratio                     : 1.85:1
  15. Frame rate mode                          : Constant
  16. Frame rate                               : 23.976 (24000/1001) FPS
  17. Color space                              : YUV
  18. Chroma subsampling                       : 4:2:0
  19. Bit depth                                : 8 bits
  20. Scan type                                : Progressive
  21. Bits/(Pixel*Frame)                       : 0.258
  22. Stream size                              : 8.55 GiB (95%)
  23. Writing library                          : x264 core 129 r2245+704+36 8e61944 tMod+MixAQ [[email protected]:2:0 X86_64]
  24. Encoding settings                        : cabac=1 / ref=4 / deblock=1:-3:-3 / analyse=0x3:0x133 / me=umh / subme=11 / psy=1 / fade_compensate=0.00 / psy_rd=1.05:0.10 / mixed_ref=1 / me_range=64 / chroma_me=1 / trellis=2 / 8x8dct=1 / cqm=0 / deadzone=21,11 / fast_pskip=0 / chroma_qp_offset=-3 / threads=18 / lookahead_threads=3 / sliced_threads=0 / nr=0 / decimate=0 / interlaced=0 / bluray_compat=0 / constrained_intra=0 / fgo=0 / bframes=10 / b_pyramid=2 / b_adapt=2 / b_bias=0 / direct=3 / weightb=1 / open_gop=0 / weightp=2 / keyint=250 / keyint_min=23 / scenecut=40 / intra_refresh=0 / rc=2pass / mbtree=0 / bitrate=12322 / ratetol=1.0 / qcomp=0.70 / qpmin=0 / qpmax=69 / qpstep=4 / cplxblur=20.0 / qblur=0.5 / ip_ratio=1.40 / pb_ratio=1.30 / aq=1 / aq-strength=0.90 / aq-sensitivity=10.00 / aq-ifactor=1.00 / aq-pfactor=1.00 / aq-bfactor=1.00 / aq2=0
  25. Language                                 : Japanese
  26. Default                                  : Yes
  27. Forced                                   : No

  28. Audio
  29. ID                                       : 2
  30. Format                                   : AC-3
  31. Format/Info                              : Audio Coding 3
  32. Commercial name                          : Dolby Digital
  33. Codec ID                                 : A_AC3
  34. Duration                                 : 1 h 39 min
  35. Bit rate mode                            : Constant
  36. Bit rate                                 : 640 kb/s
  37. Channel(s)                               : 6 channels
  38. Channel layout                           : L R C LFE Ls Rs
  39. Sampling rate                            : 48.0 kHz
  40. Frame rate                               : 31.250 FPS (1536 SPF)
  41. Bit depth                                : 16 bits
  42. Compression mode                         : Lossy
  43. Stream size                              : 455 MiB (5%)
  44. Language                                 : Japanese
  45. Service kind                             : Complete Main
  46. Default                                  : Yes
  47. Forced                                   : No

  48. Text #1
  49. ID                                       : 3
  50. Format                                   : UTF-8
  51. Codec ID                                 : S_TEXT/UTF8
  52. Codec ID/Info                            : UTF-8 Plain Text
  53. Duration                                 : 1 h 38 min
  54. Bit rate                                 : 22 b/s
  55. Count of elements                        : 740
  56. Stream size                              : 15.9 KiB (0%)
  57. Language                                 : English
  58. Default                                  : Yes
  59. Forced                                   : No

  60. Text #2
  61. ID                                       : 4
  62. Format                                   : ASS
  63. Codec ID                                 : S_TEXT/ASS
  64. Codec ID/Info                            : Advanced Sub Station Alpha
  65. Duration                                 : 1 h 34 min
  66. Bit rate                                 : 56 b/s
  67. Count of elements                        : 799
  68. Compression mode                         : Lossless
  69. Stream size                              : 39.6 KiB (0%)
  70. Default                                  : No
  71. Forced                                   : No

  72. Menu
  73. 00:00:00.000                             : en:00:00:00.000
  74. 00:09:55.970                             : en:00:09:55.970
  75. 00:21:06.431                             : en:00:21:06.431
  76. 00:29:05.577                             : en:00:29:05.577
  77. 00:36:03.202                             : en:00:36:03.202
  78. 00:42:43.727                             : en:00:42:43.727
  79. 00:48:30.908                             : en:00:48:30.908
  80. 00:54:32.185                             : en:00:54:32.185
  81. 01:01:52.500                             : en:01:01:52.500
  82. 01:06:54.844                             : en:01:06:54.844
  83. 01:12:03.819                             : en:01:12:03.819
  84. 01:17:10.959                             : en:01:17:10.959
  85. 01:25:14.776                             : en:01:25:14.776
  86. 01:31:24.520                             : en:01:31:24.520
  87. 01:39:07.191                             : en:01:39:07.191
复制代码

有熊谷守一在的地方 Mori.The.Artists.Habitat.2018.JAPANESE.1080p.BluRay.x264-iKiW 9.00GB-2.png 有熊谷守一在的地方 Mori.The.Artists.Habitat.2018.JAPANESE.1080p.BluRay.x264-iKiW 9.00GB-3.png 有熊谷守一在的地方 Mori.The.Artists.Habitat.2018.JAPANESE.1080p.BluRay.x264-iKiW 9.00GB-4.png






回复

使用道具 举报

懒得打字嘛,点击右侧快捷回复 【右侧内容,后台自定义】
您需要登录后才可以回帖 登录 | 立即加入

本版积分规则

Archiver|小黑屋| 蓝光电影网 |网站地图

Copyright © 2021 Comsenz Inc. Powered by 蓝光电影网

蓝光电影网

本站内容由用户自主分享和转载自互联网,转载目的在于传递更多信息,并不代表本网赞同其观点和对其真实性负责。

如有侵权、违反国家法律政策行为,请联系我们,我们会第一时间及时清除和处理!

举报反馈邮箱:[email protected]

快速回复 返回顶部 返回列表