找回密码

蓝光电影网

查看: 510|回复: 0

[剧情] 定时炸弹 Timebomb.1991.1080p.BluRay.REMUX.AVC.DTS-HD.MA.2.0-FGT 24.84GB

[复制链接]
蓝光币
1022
发表于 2020-2-1 17:56:15 | 显示全部楼层 |阅读模式
按时炸弹 Timebomb.1991.1080p.BluRay.REMUX.AVC.DTS-HD.MA.2.0-FGT 24.84GB-1.png

译  名 按时炸弹
片  名 Timebomb
年  代 1991
产  地 美国
类  别 剧情 / 行动 / 科幻 / 惊悚
语  言 英语 / 匈牙利语
上映日期 1991-09-27
IMDb评分  5.5/10 from 1450 users
IMDb链接  https://www.imdb.com/title/tt0105597
豆瓣评分 0/10 from 0 users
豆瓣链接 https://movie.douban.com/subject/1304395/
片  长 96 分钟
导  演 Avi Nesher
编  剧 Avi Nesher
主  演 Michael Biehn
       Patsy Kensit


标  签 科幻 | 惊悚 | 美国 | 行动 | 美国电影 | 我看过的英语电影 | 看电影 | 我的标签

简  介  

  艾迪?凯伊(Michael Biehn 饰)是一个居住在洛城的普通钟表匠,某天,他从一幢着火的公寓中成功就出一位母亲及其尚在襁褓中的孩子,艾迪一夜当中成了豪杰。但豪杰的光环并未给他带来好运,反而令他恶运缠身。
  某政府奥秘部分的官员泰勒(Richard Jordan 饰)从电视上看到艾迪的壮举,并命令刺杀艾迪。刺杀虽然失利,却恍如开启了另一空间的闸门。艾迪不竭蒙受噩梦和陌生影响的困扰,他向心理医生安娜(Patsy Kensit 饰)追求帮助,无意中发现一个完全陌生的自己……
  1. Video
  2. ID                                       : 1
  3. Format                                   : AVC
  4. Format/Info                              : Advanced Video Codec
  5. Format profile                           : [email protected]
  6. Format settings                          : CABAC / 3 Ref Frames
  7. Format settings, CABAC                   : Yes
  8. Format settings, Reference frames        : 3 frames
  9. Codec ID                                 : V_MPEG4/ISO/AVC
  10. Duration                                 : 1 h 36 min
  11. Bit rate mode                            : Variable
  12. Bit rate                                 : 34.9 Mb/s
  13. Maximum bit rate                         : 38.0 Mb/s
  14. Width                                    : 1 920 pixels
  15. Height                                   : 1 080 pixels
  16. Display aspect ratio                     : 16:9
  17. Frame rate mode                          : Constant
  18. Frame rate                               : 23.976 (24000/1001) FPS
  19. Color space                              : YUV
  20. Chroma subsampling                       : 4:2:0
  21. Bit depth                                : 8 bits
  22. Scan type                                : Progressive
  23. Bits/(Pixel*Frame)                       : 0.702
  24. Stream size                              : 23.5 GiB (94%)
  25. Title                                    : Timebomb.1991.1080p.BluRay.REMUX.AVC.DTS-HD.MA.2.0-FGT
  26. Language                                 : English
  27. Default                                  : No
  28. Forced                                   : No
  29. Color range                              : Limited
  30. Color primaries                          : BT.709
  31. Transfer characteristics                 : BT.709
  32. Matrix coefficients                      : BT.709

  33. Audio
  34. ID                                       : 2
  35. Format                                   : DTS XLL
  36. Format/Info                              : Digital Theater Systems
  37. Commercial name                          : DTS-HD Master Audio
  38. Codec ID                                 : A_DTS
  39. Duration                                 : 1 h 36 min
  40. Bit rate mode                            : Variable
  41. Bit rate                                 : 2 051 kb/s
  42. Channel(s)                               : 2 channels
  43. Channel layout                           : L R
  44. Sampling rate                            : 48.0 kHz
  45. Frame rate                               : 93.750 FPS (512 SPF)
  46. Bit depth                                : 24 bits
  47. Compression mode                         : Lossless
  48. Stream size                              : 1.38 GiB (6%)
  49. Title                                    : Timebomb.1991.1080p.BluRay.REMUX.AVC.DTS-HD.MA.2.0-FGT
  50. Language                                 : English
  51. Default                                  : Yes
  52. Forced                                   : No

  53. Text
  54. ID                                       : 3
  55. Format                                   : PGS
  56. Muxing mode                              : zlib
  57. Codec ID                                 : S_HDMV/PGS
  58. Codec ID/Info                            : Picture based subtitle format used on BDs/HD-DVDs
  59. Duration                                 : 1 h 30 min
  60. Bit rate                                 : 24.5 kb/s
  61. Count of elements                        : 1368
  62. Stream size                              : 15.8 MiB (0%)
  63. Title                                    : English-PGS
  64. Language                                 : English
  65. Default                                  : Yes
  66. Forced                                   : No

  67. Menu
  68. 00:00:00.000                             : en:Chapter 01
  69. 00:03:06.895                             : en:Chapter 02
  70. 00:06:39.190                             : en:Chapter 03
  71. 00:13:20.716                             : en:Chapter 04
  72. 00:19:22.494                             : en:Chapter 05
  73. 00:23:41.461                             : en:Chapter 06
  74. 00:28:25.787                             : en:Chapter 07
  75. 00:35:49.647                             : en:Chapter 08
  76. 00:42:37.388                             : en:Chapter 09
  77. 00:48:21.523                             : en:Chapter 10
  78. 00:52:46.371                             : en:Chapter 11
  79. 00:56:59.249                             : en:Chapter 12
  80. 01:01:21.010                             : en:Chapter 13
  81. 01:20:12.224                             : en:Chapter 14
  82. 01:28:01.526                             : en:Chapter 15
  83. 01:32:19.867                             : en:Chapter 16
复制代码

按时炸弹 Timebomb.1991.1080p.BluRay.REMUX.AVC.DTS-HD.MA.2.0-FGT 24.84GB-2.png 按时炸弹 Timebomb.1991.1080p.BluRay.REMUX.AVC.DTS-HD.MA.2.0-FGT 24.84GB-3.png 按时炸弹 Timebomb.1991.1080p.BluRay.REMUX.AVC.DTS-HD.MA.2.0-FGT 24.84GB-4.png






回复

使用道具 举报

懒得打字嘛,点击右侧快捷回复 【右侧内容,后台自定义】
您需要登录后才可以回帖 登录 | 立即加入

本版积分规则

Archiver|小黑屋| 蓝光电影网 |网站地图

Copyright © 2021 Comsenz Inc. Powered by 蓝光电影网

蓝光电影网

本站内容由用户自主分享和转载自互联网,转载目的在于传递更多信息,并不代表本网赞同其观点和对其真实性负责。

如有侵权、违反国家法律政策行为,请联系我们,我们会第一时间及时清除和处理!

举报反馈邮箱:[email protected]

快速回复 返回顶部 返回列表